Джим Пуговка и машинист Лукас / Jim Knopf und Lukas der Lokomotivführer (2018) BDRip 1080p | iTunes

Reply to topic
 
Author Message

Monk ®

Gender: Male

Longevity: 5 months 8 days

Posts: 5440

Location: Казань

Post 27-Nov-2018 13:07

[Quote]

Джим Пуговка и машинист Лукас / Jim Knopf und Lukas der Lokomotivführer Год выпуска: 2018
Жанр: Фэнтези, приключения, семейный
Выпущено: Германия, Rat Pack Filmproduktion, Malao Film, Studio Babelsberg
Режиссер: Дэннис Ганзель
В ролях: Хеннинг Баум, Као Ченмин, Энди Чунг, Тадаси Эндо, Лейганн Эсперанцате, Аннета Фрир, Томас Фритш, Соломон Гордон, Эден Гоф, Михаэль Хербиг
О фильме: Волшебная страна Медландия расположена на острове. Сюда почтальон доставляет посылку c маленьким мальчиком. Он вырастает в храброго искателя приключений. На поезде-вездеходе Джим отправляется через океан и пустыню в город Драконов, чтобы спасти принцессу.

Качество: BDRip 1080p
Видео: MPEG-4 AVC, 11.5 Мбит/с, 1920x800
Аудио: Русский (AC3, 6 ch, 384 Кбит/с), немецкий (AC3, 6 ch, 640 Кбит/c)
Продолжительность: 01:49:53
Перевод: Дублированный [iTunes]

Скриншоты



MediaInfo

General
Unique ID : 98625897524943115840564104329637285734 (0x4A32A82CCBD295265B07CC99994A4F66)
Complete name : D:\Video111\Jim.Button.and.Luke.the.Engine.Driver.2018.BDRip.1080p.seleZen.mkv
Format : Matroska
Format version : Version 4
File size : 9.57 GiB
Duration : 1 h 49 min
Overall bit rate : 12.5 Mb/s
Movie name : Jim Button and Luke the Engine Driver 2018 from селезень
Encoded date : UTC 2018-12-25 11:32:42
Writing application : mkvmerge v29.0.0 ('Like It Or Not') 64-bit
Writing library : libebml v1.3.6 + libmatroska v1.4.9
Video
ID : 1
Format : AVC
Format/Info : Advanced Video Codec
Format profile : High@L4.1
Format settings : CABAC / 5 Ref Frames
Format settings, CABAC : Yes
Format settings, ReFrames : 5 frames
Codec ID : V_MPEG4/ISO/AVC
Duration : 1 h 49 min
Bit rate : 11.5 Mb/s
Width : 1 920 pixels
Height : 800 pixels
Display aspect ratio : 2.40:1
Frame rate mode : Constant
Frame rate : 23.976 (24000/1001) FPS
Color space : YUV
Chroma subsampling : 4:2:0
Bit depth : 8 bits
Scan type : Progressive
Bits/(Pixel*Frame) : 0.311
Stream size : 8.78 GiB (92%)
Title : seleZen
Writing library : x264 core 148 r2705kMod 3f5ed56
Encoding settings : cabac=1 / ref=5 / deblock=1:-2:-2 / analyse=0x3:0x133 / me=umh / subme=11 / psy=1 / fade_compensate=0.00 / psy_rd=1.05:0.06 / mixed_ref=1 / me_range=48 / chroma_me=1 / trellis=2 / 8x8dct=1 / cqm=0 / deadzone=21,11 / fast_pskip=0 / chroma_qp_offset=-3 / threads=12 / lookahead_threads=2 / sliced_threads=0 / nr=0 / decimate=0 / interlaced=0 / bluray_compat=0 / constrained_intra=0 / fgo=0 / bframes=8 / b_pyramid=2 / b_adapt=2 / b_bias=0 / direct=3 / weightb=1 / open_gop=0 / weightp=2 / keyint=240 / keyint_min=23 / scenecut=40 / intra_refresh=0 / rc_lookahead=50 / rc=2pass / mbtree=0 / bitrate=11459 / ratetol=1.0 / qcomp=0.60 / qpmin=0 / qpmax=51 / qpstep=4 / cplxblur=20.0 / qblur=0.5 / vbv_maxrate=50000 / vbv_bufsize=62500 / nal_hrd=none / filler=0 / ip_ratio=1.40 / pb_ratio=1.30 / aq=3:0.80
Language : English
Default : Yes
Forced : No
Audio #1
ID : 2
Format : AC-3
Format/Info : Audio Coding 3
Commercial name : Dolby Digital
Codec ID : A_AC3
Duration : 1 h 49 min
Bit rate mode : Constant
Bit rate : 384 kb/s
Channel(s) : 6 channels
Channel layout : L R C LFE Ls Rs
Sampling rate : 48.0 kHz
Frame rate : 31.250 FPS (1536 SPF)
Bit depth : 16 bits
Compression mode : Lossy
Stream size : 301 MiB (3%)
Title : iTunes
Language : Russian
Service kind : Complete Main
Default : Yes
Forced : Yes
Audio #2
ID : 3
Format : AC-3
Format/Info : Audio Coding 3
Commercial name : Dolby Digital
Codec ID : A_AC3
Duration : 1 h 49 min
Bit rate mode : Constant
Bit rate : 640 kb/s
Channel(s) : 6 channels
Channel layout : L R C LFE Ls Rs
Sampling rate : 48.0 kHz
Frame rate : 31.250 FPS (1536 SPF)
Bit depth : 16 bits
Compression mode : Lossy
Stream size : 503 MiB (5%)
Title : Original
Language : German
Service kind : Complete Main
Default : No
Forced : No
Menu
00:00:00.000 : en:Глава 01
00:08:29.801 : en:Глава 02
00:17:28.965 : en:Глава 03
00:27:20.180 : en:Глава 04
00:37:23.491 : en:Глава 05
00:45:46.577 : en:Глава 06
00:54:37.191 : en:Глава 07
01:02:09.517 : en:Глава 08
01:14:04.982 : en:Глава 09
01:24:52.754 : en:Глава 10
01:33:58.091 : en:Глава 11
01:40:14.091 : en:Глава 12
[Profile] [PM]
Display posts:    
Reply to topic

Current time is: 22-Apr 18:25

All times are UTC + 3



You cannot post new topics in this forum
You cannot reply to topics in this forum
You cannot edit your posts in this forum
You cannot delete your posts in this forum
You cannot vote in polls in this forum
You cannot attach files in this forum
You cannot download files in this forum