Discovery. Аляска: Семья из леса / Alaskan Bush People [1-7 сезоны: 1-82 серии из 82] (2014-2019) HDTVRip 720p от GeneralFilm

Reply to topic
 
Author Message

Starik60 ®

Gender: Male

Longevity: 11 months 8 days

Posts: 171

Location: Москва, Россия

Post 27-Nov-2018 13:51

[Quote]

Аляска: семья из леса / Alaskan Bush People
Год выпуска: 2014-2019
Жанр: Документальный, выживание, история
Выпущено: США, Discovery Channel
Режиссер: Т.Дж. Шанкс, Джейсон Берман, Эзра Эпвелл
В ролях: Билл Браун, Гэйб Браун, Мэтт Браун
О фильме: Среди лесов Аляски живет семья, которой чужды прелести цивилизации и которая предпочитает глушь и уединение. Билли Браун, его жена Эми и их семеро детей, пять мальчиков и две девочки, поселились так далеко, что других людей они видят не чаще, чем раз в полгода. Члены этой семьи называют себя «волчьей стаей» – познакомьтесь с ними, посмотрев программу на Discovery Channel.

Качество: HDTVRip 720p
Видео: MPEG-4 AVC, ~ 4000 Кбит/с, 1280x720
Аудио: MP2, 2 ch, 192 Кбит/с
Продолжительность: 82 x ~ 00:44:00
Перевод: Профессиональный (одноголосый, закадровый) профессиональный (многоголосый, закадровый)

Скриншоты



MediaInfo

General
Unique ID : 91196756459922700883116192082990344074 (0x449BDB3DAAC824B3E607F5F365C6278A)
Complete name : H:\Раздачи 3\Аляска семья из леса S01-06 720p GeneralFiln\1 Сезон 720р\01 Аляска семья из леса.mkv
Format : Matroska
Format version : Version 2
File size : 1.26 GiB
Duration : 42 min 51 s
Overall bit rate mode : Variable
Overall bit rate : 4 195 kb/s
Writing application : Lavf54.63.104
Writing library : Lavf54.63.104
Video
ID : 1
Format : AVC
Format/Info : Advanced Video Codec
Format profile : High@L4.1
Format settings : CABAC / 3 Ref Frames
Format settings, CABAC : Yes
Format settings, ReFrames : 3 frames
Codec ID : V_MPEG4/ISO/AVC
Duration : 42 min 51 s
Bit rate mode : Variable
Bit rate : 3 920 kb/s
Maximum bit rate : 4 000 kb/s
Width : 1 280 pixels
Height : 720 pixels
Display aspect ratio : 16:9
Frame rate mode : Constant
Frame rate : 30.000 FPS
Standard : NTSC
Color space : YUV
Chroma subsampling : 4:2:0
Bit depth : 8 bits
Scan type : Progressive
Bits/(Pixel*Frame) : 0.142
Stream size : 1.17 GiB (93%)
Default : No
Forced : No
Color range : Limited
Color primaries : BT.709
Transfer characteristics : BT.709
Matrix coefficients : BT.709
Audio
ID : 2
Format : MPEG Audio
Format version : Version 1
Format profile : Layer 2
Codec ID : A_MPEG/L2
Codec ID/Hint : MP2
Duration : 42 min 51 s
Bit rate mode : Constant
Bit rate : 192 kb/s
Channel(s) : 2 channels
Sampling rate : 48.0 kHz
Compression mode : Lossy
Stream size : 58.9 MiB (5%)
Language : English
Default : Yes
Forced : No
Благодарю за отличный постер ValkiriaGF
Релиз от:
[Profile] [PM]
Display posts:    
Reply to topic

Current time is: 20-Oct 18:37

All times are UTC + 3



You cannot post new topics in this forum
You cannot reply to topics in this forum
You cannot edit your posts in this forum
You cannot delete your posts in this forum
You cannot vote in polls in this forum
You cannot attach files in this forum
You cannot download files in this forum