Discovery. Дьявольский каньон / Devil's Canyon [1-6 серии из 6] (2017) HDTVRip от GeneralFilm

Reply to topic
 
Author Message

Starik60 ®

Gender: Male

Longevity: 5 months 10 days

Posts: 121

Location: Москва, Россия

Post 27-Nov-2018 17:12

[Quote]

Дьявольский каньон / Devil's Canyon
Год выпуска: 2017
Жанр: Документальный, приключения, реальное ТВ
Выпущено: США, Discovery Channel
В ролях: Бойс Гофф, Бен ван дер Волк, Джон Белкик
О фильме: Дьявольский каньон – район в Британской Колумбии, известный самыми богатыми месторождениями россыпного золота в мире. При этом он признан одним из наиболее трудных для жизни мест на планете. И всё же находятся смельчаки, готовые отправиться на край света с рюкзаком за спиной, как это делали первопроходцы времен золотой лихорадки. В новой программе трое старателей-экстремалов решаются на самое рискованное предприятие в их жизни: попытать счастья в труднодоступных уголках Дьявольского каньона. Их задача – успеть добыть как можно больше золота за период короткого северного лета. Героям предстоит выдержать ураганный ветер, пронизывающий до костей дождь и снег, гипотермию и справиться с угрозой нападения медведей.

Качество: HDTVRip
Видео: XviD, ~ 1540 Кбит/с, 720x400
Аудио: AC3, 2 ch, 192 Кбит/с
Продолжительность: 6 x ~ 00:44:00
Перевод: Профессиональный (одноголосый, закадровый)

Скриншоты



MediaInfo

General
Complete name : H:\Раздачи 3\Дьявольский каньон GeneralFilm\01 Дьявольский каньон.avi
Format : AVI
Format/Info : Audio Video Interleave
File size : 545 MiB
Duration : 43 min 43 s
Overall bit rate : 1 744 kb/s
Writing application : VirtualDubMod 1.5.10.3 | www.virtualdub-fr.org || (build 2550/release)
Writing library : VirtualDubMod build 2550/release
Video
ID : 0
Format : MPEG-4 Visual
Format profile : Advanced Simple@L5
Format settings : BVOP1 / Custom Matrix
Format settings, BVOP : 1
Format settings, QPel : No
Format settings, GMC : No warppoints
Format settings, Matrix : Custom
Codec ID : XVID
Codec ID/Hint : XviD
Duration : 43 min 43 s
Bit rate : 1 542 kb/s
Width : 720 pixels
Height : 400 pixels
Display aspect ratio : 16:9
Frame rate : 25.000 FPS
Color space : YUV
Chroma subsampling : 4:2:0
Bit depth : 8 bits
Scan type : Progressive
Compression mode : Lossy
Bits/(Pixel*Frame) : 0.214
Stream size : 482 MiB (88%)
Writing library : XviD 73
Audio
ID : 1
Format : AC-3
Format/Info : Audio Coding 3
Commercial name : Dolby Digital
Codec ID : 2000
Duration : 43 min 43 s
Bit rate mode : Constant
Bit rate : 192 kb/s
Channel(s) : 2 channels
Channel layout : L R
Sampling rate : 48.0 kHz
Frame rate : 31.250 FPS (1536 SPF)
Bit depth : 16 bits
Compression mode : Lossy
Stream size : 60.1 MiB (11%)
Alignment : Split accross interleaves
Interleave, duration : 40 ms (1.00 video frame)
Interleave, preload duratio : 500 ms
Service kind : Complete Main
Благодарю за отличный постер ValkiriaGF
Релиз от:
[Profile] [PM]
Display posts:    
Reply to topic

Current time is: 23-Apr 09:57

All times are UTC + 3



You cannot post new topics in this forum
You cannot reply to topics in this forum
You cannot edit your posts in this forum
You cannot delete your posts in this forum
You cannot vote in polls in this forum
You cannot attach files in this forum
You cannot download files in this forum