Мать за сына [1-2 серии из 2] (2017) WEB-DLRip от Files-x

Reply to topic
 
Author Message

bond74 ®

Gender: Male

Longevity: 5 months 8 days

Posts: 311

Post 27-Nov-2018 17:15

[Quote]

Мать за сына Год выпуска: 2017
Жанр: Драма
Выпущено: Россия, «ВИМ СТУДИО»
Режиссер: Петр Степин
В ролях: Дарья Повереннова, Дмитрий Егоров (III), Алексей Фатеев, Анастасия Седлецкая, Святослав Астрамович, Елизавета Шукова
О фильме: Ирина всю жизнь посвятила сыну Кириллу. Из-за него она даже откладывает свадьбу с любимым мужчиной. Кирилл же тем временем прожигает жизнь со своими друзьями-мажорами. В один из дней они пьяными садятся за руль и сбивают на переходе девушку Алену. И хотя за рулем сидел Андрей, сын судьи, чтобы избежать наказания, друзья обвиняют в аварии Кирилла. Ирина вынуждена идти к отцу Алены и просить его поверить в невиновность сына. Кирилл каждый день навещает Алену, которая после аварии стала инвалидом. Между ними возникает симпатия. Но усилиями судьи положение Кирилла становится безнадежным.
Качество: WEB-DLRip
Видео: XviD, ~ 1 972 Кбит/с, 720x400
Аудио: AC3, 2 ch, 192 Кбит/с
Продолжительность: 2 x ~ 01:30:50
Перевод: Не требуется
Субтитры: нет

Скриншоты

MediaInfo

General
Complete name : D:\Мать за сына.2017.WEB-DLRip.Files-x\01.Мать за сына.2017.WEB-DLRip.Files-x.avi
Format : AVI
Format/Info : Audio Video Interleave
File size : 1.37 GiB
Duration : 1h 30mn
Overall bit rate : 2 173 Kbps
Writing application : VirtualDubMod 1.5.10.3 | www.virtualdub-fr.org || (build 2550/release)
Writing library : VirtualDubMod build 2550/release
Video
ID : 0
Format : MPEG-4 Visual
Format profile : Advanced Simple@L5
Format settings, BVOP : 1
Format settings, QPel : No
Format settings, GMC : No warppoints
Format settings, Matrix : Custom
Codec ID : XVID
Codec ID/Hint : XviD
Duration : 1h 30mn
Bit rate : 1 972 Kbps
Width : 720 pixels
Height : 400 pixels
Display aspect ratio : 16:9
Frame rate : 25.000 fps
Color space : YUV
Chroma subsampling : 4:2:0
Bit depth : 8 bits
Scan type : Progressive
Compression mode : Lossy
Bits/(Pixel*Frame) : 0.274
Stream size : 1.24 GiB (91%)
Writing library : XviD 73
Audio
ID : 1
Format : AC-3
Format/Info : Audio Coding 3
Mode extension : CM (complete main)
Format settings, Endianness : Big
Codec ID : 2000
Duration : 1h 30mn
Bit rate mode : Constant
Bit rate : 192 Kbps
Channel count : 2 channels
Channel positions : Front: L R
Sampling rate : 48.0 KHz
Bit depth : 16 bits
Compression mode : Lossy
Stream size : 124 MiB (9%)
Alignment : Split accross interleaves
Interleave, duration : 40 ms (1.00 video frame)
Interleave, preload duration : 500 ms
Релиз от:
[Profile] [PM]
Display posts:    
Reply to topic

Current time is: 23-Apr 10:00

All times are UTC + 3



You cannot post new topics in this forum
You cannot reply to topics in this forum
You cannot edit your posts in this forum
You cannot delete your posts in this forum
You cannot vote in polls in this forum
You cannot attach files in this forum
You cannot download files in this forum