Discovery. Дьявольский каньон / Devil's Canyon [1-6 серии из 6] (2017) HDTVRip 720p от GeneralFilm

Reply to topic
 
Author Message

Starik60 ®

Gender: Male

Longevity: 9 months 13 days

Posts: 148

Location: Москва, Россия

Post 27-Nov-2018 17:27

[Quote]

Дьявольский каньон / Devil's Canyon
Год выпуска: 2017
Жанр: Документальный, приключения, реальное ТВ
Выпущено: США, Discovery Channel
В ролях: Бойс Гофф, Бен ван дер Волк, Джон Белкик
О фильме: Дьявольский каньон – район в Британской Колумбии, известный самыми богатыми месторождениями россыпного золота в мире. При этом он признан одним из наиболее трудных для жизни мест на планете. И всё же находятся смельчаки, готовые отправиться на край света с рюкзаком за спиной, как это делали первопроходцы времен золотой лихорадки. В новой программе трое старателей-экстремалов решаются на самое рискованное предприятие в их жизни: попытать счастья в труднодоступных уголках Дьявольского каньона. Их задача – успеть добыть как можно больше золота за период короткого северного лета. Героям предстоит выдержать ураганный ветер, пронизывающий до костей дождь и снег, гипотермию и справиться с угрозой нападения медведей.

Качество: HDTVRip 720p
Видео: MPEG-4 AVC, ~ 4000 Кбит/с, 1280x720
Аудио: MP2, 2 ch, 192 Кбит/с
Продолжительность: 6 x ~ 00:44:00
Перевод: Профессиональный (одноголосый, закадровый)

Скриншоты



MediaInfo

General
Unique ID : 293596735018605348607994355049599632616 (0xDCE0ACA281E2EC61A9957B9E4C9C84E8)
Complete name : H:\Раздачи 3\Дьявольский каньон 720p GeneralFilm\01 Дьявольский каньон.mkv
Format : Matroska
Format version : Version 2
File size : 1.28 GiB
Duration : 43 min 48 s
Overall bit rate mode : Constant
Overall bit rate : 4 197 kb/s
Writing application : Lavf54.63.104
Writing library : Lavf54.63.104
Video
ID : 1
Format : AVC
Format/Info : Advanced Video Codec
Format profile : High@L4.1
Format settings : CABAC / 3 Ref Frames
Format settings, CABAC : Yes
Format settings, ReFrames : 3 frames
Codec ID : V_MPEG4/ISO/AVC
Duration : 43 min 48 s
Bit rate mode : Constant
Bit rate : 4 000 kb/s
Width : 1 280 pixels
Height : 720 pixels
Display aspect ratio : 16:9
Frame rate mode : Constant
Frame rate : 50.000 FPS
Standard : PAL
Color space : YUV
Chroma subsampling : 4:2:0
Bit depth : 8 bits
Scan type : Progressive
Bits/(Pixel*Frame) : 0.087
Stream size : 1.20 GiB (93%)
Default : No
Forced : No
Color range : Limited
Color primaries : BT.709
Transfer characteristics : BT.709
Matrix coefficients : BT.709
Audio
ID : 2
Format : MPEG Audio
Format version : Version 1
Format profile : Layer 2
Codec ID : A_MPEG/L2
Codec ID/Hint : MP2
Duration : 43 min 48 s
Bit rate mode : Constant
Bit rate : 192 kb/s
Channel(s) : 2 channels
Sampling rate : 48.0 kHz
Compression mode : Lossy
Delay relative to video : 20 ms
Stream size : 60.2 MiB (5%)
Language : English
Default : Yes
Forced : No
Благодарю за отличный постер ValkiriaGF
Релиз от:
[Profile] [PM]
Display posts:    
Reply to topic

Current time is: 25-Aug 15:23

All times are UTC + 3



You cannot post new topics in this forum
You cannot reply to topics in this forum
You cannot edit your posts in this forum
You cannot delete your posts in this forum
You cannot vote in polls in this forum
You cannot attach files in this forum
You cannot download files in this forum