Discovery. Горная бригада [1-12 серии из 12] (2014) HDTVRip от CeneralFilm

Reply to topic
 
Author Message

Starik60 ®

Gender: Male

Longevity: 11 months 7 days

Posts: 171

Location: Москва, Россия

Post 27-Nov-2018 18:05

[Quote]

Горная бригада
Год выпуска: 2014
Жанр: Документальный, вооружение
Выпущено: Россия, RT.AHO.TB-НОВОСТИ
Режиссер: Андрей Косарыгин
О фильме: Документальный сериал рассказывает о специальных подразделениях российской армии, нацеленных на ведение боевых действий в высокогорных условиях. В горной бригаде к молодым солдатам предъявляются особые требования: они должны в совершенстве владеть альпинистскими навыками и уметь пользоваться самыми разными видами вооружения, не говоря уже о высоких физических и морально-волевых качествах. Рэпер Максим Шевчук, пройдя полный курс боевой подготовки, способен к выполнению самых сложных боевых задач. Сегодня он - часть элитного подразделения вооружённых сил страны.
Качество: HDTVRip
Видео: XviD, ~ 1600 Кбит/с, 720x400
Аудио: AC3, 2 ch, 192 Кбит/c
Продолжительность: 12 x ~ 00:22:00
Перевод: Не требуется

Скриншоты



MediaInfo

General
Complete name : H:\Раздачи 3\Горная бригада GeneralFilm\01 Горная бригада GeneralFilm.avi
Format : AVI
Format/Info : Audio Video Interleave
File size : 285 MiB
Duration : 22 min 4 s
Overall bit rate : 1 802 kb/s
Writing application : VirtualDubMod 1.5.10.3 | www.virtualdub-fr.org || (build 2550/release)
Writing library : VirtualDubMod build 2550/release
Video
ID : 0
Format : MPEG-4 Visual
Format profile : Advanced Simple@L5
Format settings : BVOP1 / Custom Matrix
Format settings, BVOP : 1
Format settings, QPel : No
Format settings, GMC : No warppoints
Format settings, Matrix : Custom
Codec ID : XVID
Codec ID/Hint : XviD
Duration : 22 min 4 s
Bit rate : 1 600 kb/s
Width : 720 pixels
Height : 400 pixels
Display aspect ratio : 16:9
Frame rate : 25.000 FPS
Color space : YUV
Chroma subsampling : 4:2:0
Bit depth : 8 bits
Scan type : Progressive
Compression mode : Lossy
Bits/(Pixel*Frame) : 0.222
Stream size : 253 MiB (89%)
Writing library : XviD 1.2.1 (UTC 2008-12-04)
Audio
ID : 1
Format : AC-3
Format/Info : Audio Coding 3
Commercial name : Dolby Digital
Codec ID : 2000
Duration : 22 min 4 s
Bit rate mode : Constant
Bit rate : 192 kb/s
Channel(s) : 2 channels
Channel layout : L R
Sampling rate : 48.0 kHz
Frame rate : 31.250 FPS (1536 SPF)
Bit depth : 16 bits
Compression mode : Lossy
Stream size : 30.3 MiB (11%)
Alignment : Split accross interleaves
Interleave, duration : 40 ms (1.00 video frame)
Interleave, preload duratio : 500 ms
Service kind : Complete Main
Благодарю за отличный постер ValkiriaGF
Релиз от:
[Profile] [PM]
Display posts:    
Reply to topic

Current time is: 19-Oct 21:35

All times are UTC + 3



You cannot post new topics in this forum
You cannot reply to topics in this forum
You cannot edit your posts in this forum
You cannot delete your posts in this forum
You cannot vote in polls in this forum
You cannot attach files in this forum
You cannot download files in this forum