СеняФедя [1 сезон: 1-11 серии из 11] (2018) WEB-DLRip 720p от Files-x

Reply to topic
 
Author Message

papa1951deda ®

Gender: Male

Longevity: 11 months 24 days

Posts: 378

Location: Казахстан

Post 27-Nov-2018 19:44

[Quote]

СеняФедя Год выпуска: 2018
Жанр: Комедия
Выпущено: PICK UP FILM по заказу телеканала СТС
Режиссёр: Антон Федотов
В ролях: Сергей Лавыгин, Михаил Тарабукин, Анна Бегунова, Ирина Серова, Леся Кудряшова, Сергей Марухин, Дмитрий Мазуров, Анастасия Шумилкина, Юлия Беляева, Никита Абдулов
О фильме: Сеня и Федя решают открыть собственный бизнес — закусочную на колёсах. Совместная работа не ладится с первого дня, но разойтись друзья не могут, ведь ничто так не объединяет людей, как совместный кредит. Попав в мир деловых отношений, парни сталкиваются не только с проблемой поиска компромиссов, но и с крупной сетью фудтраков, стремящихся вытеснить с улиц всех конкурентов. На фоне борьбы с акулами гастрономического бизнеса друзья не заметят, как поменяются ролями на личной «кухне»: семьянин Сеня попробует на вкус холостяцкую жизнь, а бабник Федя отправится на поиски тихой семейной гавани.
Качество: WEB-DLRip 720p
Видео: MPEG 4 AVC, ~ 3500 Кбит/с, 1280x720, 25 кадр/с
Аудио: AC3, 2 ch, 192 Кбит/с
Продолжительность: 11 х ~ 00:25:00
Перевод: Не требуется
Субтитры: Нет

Скриншоты


MediaInfo

General
Unique ID : 239195393423078855658460436441799191812 (0xB3F35B69496CD0A4A9763054887DED04)
Complete name : D:\моё видио\SenyaFedya. .2018) WEB-DL 720p. Files-x\SenyaFedya.e01.2018.WEB-DL.720p.Files-x.mkv
Format : Matroska
Format version : Version 2
File size : 624 MiB
Duration : 23mn 48s
Overall bit rate : 3 665 Kbps
Encoded date : UTC 2018-11-19 16:35:04
Writing application : mkvmerge v7.8.0 ('River Man') 32bit built on Apr 3 2015 12:11:22
Writing library : libebml v1.3.1 + libmatroska v1.4.2
Video
ID : 1
Format : AVC
Format/Info : Advanced Video Codec
Format profile : High@L4.1
Format settings, CABAC : Yes
Format settings, ReFrames : 5 frames
Codec ID : V_MPEG4/ISO/AVC
Duration : 23mn 48s
Bit rate : 3 500 Kbps
Width : 1 280 pixels
Height : 720 pixels
Display aspect ratio : 16:9
Frame rate mode : Constant
Frame rate : 25.000 fps
Color space : YUV
Chroma subsampling : 4:2:0
Bit depth : 8 bits
Scan type : Progressive
Bits/(Pixel*Frame) : 0.152
Stream size : 579 MiB (93%)
Writing library : x264 core 148
Encoding settings : cabac=1 / ref=5 / deblock=1:0:0 / analyse=0x3:0x113 / me=hex / subme=8 / psy=1 / psy_rd=1.00:0.00 / mixed_ref=1 / me_range=16 / chroma_me=1 / trellis=2 / 8x8dct=1 / cqm=0 / deadzone=21,11 / fast_pskip=1 / chroma_qp_offset=-2 / threads=22 / lookahead_threads=3 / sliced_threads=0 / nr=0 / decimate=1 / interlaced=0 / bluray_compat=0 / constrained_intra=0 / bframes=3 / b_pyramid=2 / b_adapt=1 / b_bias=0 / direct=3 / weightb=1 / open_gop=0 / weightp=2 / keyint=250 / keyint_min=25 / scenecut=0 / intra_refresh=0 / rc_lookahead=50 / rc=abr / mbtree=1 / bitrate=3500 / ratetol=1.0 / qcomp=0.60 / qpmin=0 / qpmax=69 / qpstep=4 / ip_ratio=1.40 / aq=1:1.00
Default : Yes
Forced : No
Audio
ID : 2
Format : AC-3
Format/Info : Audio Coding 3
Mode extension : CM (complete main)
Format settings, Endianness : Big
Codec ID : A_AC3
Duration : 23mn 48s
Bit rate mode : Constant
Bit rate : 192 Kbps
Channel(s) : 2 channels
Channel positions : Front: L R
Sampling rate : 44.1 KHz
Bit depth : 16 bits
Compression mode : Lossy
Delay relative to video : -80ms
Stream size : 32.7 MiB (5%)
Default : Yes
Forced : No

Раздача ведётся путём добавления новых серий

Внимание! Раздача ведётся путём добавления новых серий; при каждом добавлении создаётся новый торрент.
Чтобы начать докачку новой серии, пользователям необходимо сделать следующее:
1. Остановить скачивание;
2. Удалить старый торрент у себя из клиента (старые серии удалять не надо);
3. Скачать новый торрент и запустить его у себя в клиенте вместо старого, при этом указать клиенту путь в старую папку куда и должно происходить скачивание новых серий. Ваш клиент при этом должен произвести хеширование (проверку) старой папки и будет докачивать только те серии, которых у вас ещё нет. Старые серии при этом не удаляются, а продолжают раздаваться! Eсли вы уже удалили старые серии, то предотвратить повторную закачку старых серий можно, отжав галочку в соответствующих местах при запуске нового торрента.
Релиз от:


Last edited by papa1951deda on 2018-12-11 20:00; edited 4 times in total
[Profile] [PM]

papa1951deda ®

Gender: Male

Longevity: 11 months 24 days

Posts: 378

Location: Казахстан

Post 13-Jan-2019 15:47 (after 1 month 15 days)

[Quote]

Добавлена 11 серия
[Profile] [PM]
Display posts:    
Reply to topic

Current time is: 15-Nov 01:40

All times are UTC + 3



You cannot post new topics in this forum
You cannot reply to topics in this forum
You cannot edit your posts in this forum
You cannot delete your posts in this forum
You cannot vote in polls in this forum
You cannot attach files in this forum
You cannot download files in this forum