Discovery. Разрушители легенд / Mythbusters [17 сезон: 1-12 серии из 12] (2017) HDTVRip от GeneralFilm

Ответить на тему
 
Автор Сообщение

Starik60 ®

Пол: Мужской

Стаж: 3 месяца 4 дня

Сообщений: 111

Откуда: Москва, Россия

Создавать темы 18-Ноя-2018 13:33

[Цитировать]

Разрушители легенд / Mythbusters
Год выпуска: 2017
Жанр: Документальный, научно-познавательный, шоу
Выпущено: США, Австралия, Discovery Communications, Beyond Distribution
Режиссер: Элис Дэллоу, Табита Лентл, Лорен Грэй Уильямс
В ролях: Брайан Лоуден, Джон Ланг
О фильме: Соскучились по разрушителям легенд? Встречайте новое поколение, которое в лучших традициях шоу подвергает испытаниям популярные мифы, городские легенды и киношные трюки! Проектам Брайана Лоудена и Джона Ланга нет числа: они проводят эксперименты с мечами на ракетной тяге и взрывающимися газовыми баллонами, а также устраивают аварии для проверок подушек безопасности. Новым разрушителям легенд не терпится разузнать, существует ли такое явление, как отложенная смерть, и может ли вора, застрявшего в каминной трубе, выкурить взрыв пропана. Изобретательные мастера на все руки ставят и другие взрывные эксперименты, и тут им понадобится помощь «старой гвардии». Когда потрясающие трюки ещё и записывают с помощью высокоскоростных камер, наука начинает играть новыми красками!

Качество: HDTVRip
Видео: XviD, 1900 Кбит/с, 720x400
Аудио: AC3, 2 ch, 192 Кбит/с
Продолжительность: 12 x ~ 00:44:00
Перевод: Профессиональный (двухголосый, закадровый)

Скриншоты



MediaInfo

General
Complete name : H:\Раздачи 3\Разрушители легенд s17 GeneralFikm\01 Разрушители легенд GeneralFilm.avi
Format : AVI
Format/Info : Audio Video Interleave
File size : 661 MiB
Duration : 43 min 59 s
Overall bit rate : 2 102 kb/s
Writing application : VirtualDubMod 1.5.10.3 | www.virtualdub-fr.org || (build 2550/release)
Writing library : VirtualDubMod build 2550/release
Video
ID : 0
Format : MPEG-4 Visual
Format profile : Advanced Simple@L5
Format settings : BVOP1 / Custom Matrix
Format settings, BVOP : 1
Format settings, QPel : No
Format settings, GMC : No warppoints
Format settings, Matrix : Custom
Codec ID : XVID
Codec ID/Hint : XviD
Duration : 43 min 59 s
Bit rate : 1 900 kb/s
Width : 720 pixels
Height : 400 pixels
Display aspect ratio : 16:9
Frame rate : 25.000 FPS
Color space : YUV
Chroma subsampling : 4:2:0
Bit depth : 8 bits
Scan type : Progressive
Compression mode : Lossy
Bits/(Pixel*Frame) : 0.264
Stream size : 598 MiB (90%)
Writing library : XviD 1.2.1 (UTC 2008-12-04)
Audio
ID : 1
Format : AC-3
Format/Info : Audio Coding 3
Commercial name : Dolby Digital
Codec ID : 2000
Duration : 43 min 59 s
Bit rate mode : Constant
Bit rate : 192 kb/s
Channel(s) : 2 channels
Channel layout : L R
Sampling rate : 48.0 kHz
Frame rate : 31.250 FPS (1536 SPF)
Bit depth : 16 bits
Compression mode : Lossy
Stream size : 60.4 MiB (9%)
Alignment : Split accross interleaves
Interleave, duration : 40 ms (1.00 video frame)
Interleave, preload duratio : 500 ms
Service kind : Complete Main

Название серий

01. Снос голов.
02. Труба-пушка.
03. Труп-дублёр.
04. Смертельная духовка и смертоносный бойлер.
05. Горящая стрела и бензобак.
06. Стеклянная рама.
07. Рок и ярость.
08. Дикий Запад.
09. Сила пера.
10. Суперфонтан.
11. Динамитный депозит.
12. Высоковольтный побег.
Благодарю за отличный постер ValkiriaGF
Релиз от:
[Профиль] [ЛС]
Показать сообщения:    
Ответить на тему

Текущее время: 16-Фев 21:33

Часовой пояс: UTC + 3



Вы не можете начинать темы
Вы не можете отвечать на сообщения
Вы не можете редактировать свои сообщения
Вы не можете удалять свои сообщения
Вы не можете голосовать в опросах
Вы не можете прикреплять файлы к сообщениям
Вы не можете скачивать файлы