Акварели [1-16 серии из 16] (2018) WEB-DLRip от Files-x

Reply to topic
 
Author Message

bond74 ®

Gender: Male

Longevity: 7 months 5 days

Posts: 516

Post 27-Nov-2018 23:06

[Quote]

Акварели Год выпуска: 2018
Жанр: Мелодрама
Выпущено: Россия, Беларусь, Украина, Filmstream, Vileton production
Режиссер: Алексей Карелин
В ролях: Дарья Щербакова, Марина Могилевская, Илья Алексеев, Оксана Базилевич, Дмитрий Егоров (III), Игорь Денисов, Марта Голубева, Андрей Новик, Олег Алмазов, Зоя Антонова, Пётр Баранчеев, Александр Чевычелов, Олег Ткачёв, Валентина Гарцуева, Александр Павлов (IV), Лариса Маршалова, Анна Полупанова, Дмитрий Пустильник, Алиса Петрова
О фильме: Лёха Иванов становится главой семьи, когда выкупает фамильный особняк. Это не устраивает Антона, который этот особняк построил. В борьбе за «престол» нет запрещенных средств, и пусть придётся стрелять из лука, взрывать вертолёт и оказаться в другой эпохе.

Качество: WEB-DLRip
Видео: XviD, ~ 1500 Кбит/с, 720x400, 25 кадр/с
Аудио: AC3, 2 ch, 192 Кбит/с
Продолжительность: 16 х ~ 00:51:00
Перевод: Не требуется

Скриншоты

MediaInfo

General
Complete name : D:\Акварели..2018.WEB-DLRip.Files-x\01.Акварели..2018.WEB-DLRip.Files-x.avi
Format : AVI
Format/Info : Audio Video Interleave
File size : 639 MiB
Duration : 52mn 33s
Overall bit rate : 1 701 Kbps
Writing application : VirtualDubMod 1.5.10.3 | www.virtualdub-fr.org || (build 2550/release)
Writing library : VirtualDubMod build 2550/release
Video
ID : 0
Format : MPEG-4 Visual
Format profile : Advanced Simple@L5
Format settings, BVOP : 1
Format settings, QPel : No
Format settings, GMC : No warppoints
Format settings, Matrix : Custom
Codec ID : XVID
Codec ID/Hint : XviD
Duration : 52mn 33s
Bit rate : 1 499 Kbps
Width : 720 pixels
Height : 400 pixels
Display aspect ratio : 16:9
Frame rate : 25.000 fps
Color space : YUV
Chroma subsampling : 4:2:0
Bit depth : 8 bits
Scan type : Progressive
Compression mode : Lossy
Bits/(Pixel*Frame) : 0.208
Stream size : 563 MiB (88%)
Writing library : XviD 73
Audio
ID : 1
Format : AC-3
Format/Info : Audio Coding 3
Mode extension : CM (complete main)
Format settings, Endianness : Big
Codec ID : 2000
Duration : 52mn 33s
Bit rate mode : Constant
Bit rate : 192 Kbps
Channel count : 2 channels
Channel positions : Front: L R
Sampling rate : 48.0 KHz
Bit depth : 16 bits
Compression mode : Lossy
Stream size : 72.2 MiB (11%)
Alignment : Split accross interleaves
Interleave, duration : 40 ms (1.00 video frame)
Interleave, preload duration : 500 ms
Релиз от:
[Profile] [PM]
Display posts:    
Reply to topic

Current time is: 20-Jun 11:22

All times are UTC + 3



You cannot post new topics in this forum
You cannot reply to topics in this forum
You cannot edit your posts in this forum
You cannot delete your posts in this forum
You cannot vote in polls in this forum
You cannot attach files in this forum
You cannot download files in this forum