Курортный роман [2 сезон: 1-4 серии из 4] (2018) WEB-DLRip от Files-x

Reply to topic
 
Author Message

bond74 ®

Gender: Male

Longevity: 7 months 5 days

Posts: 516

Post 27-Nov-2018 23:16

[Quote]

Курортный роман 2 Год выпуска: 2018
Жанр: Комедия
Выпущено: Россия, Феникс-Фильм
Режиссер: Игорь Мужжухин
В ролях: Софья Каштанова, Дарья Калмыкова, Наталья Ноздрина, Алексей Фатеев, Игорь Гудеев, Пётр Баранчеев, Ольга Бынкова, Павел Баршак, Марина Барсукова, Сергей Карякин, Игорь Филиппов, Андрей Межулис, Юлия Полынская, Ирина Темичева, Екатерина Мадалинская, Игорь Кулачко
О фильме: Проходит год с момента крымских приключений Юли, Милы, Сони, Глеба и Алика. Курортный роман Милы и Глеба перерастает в виртуальный, ведь Мила теперь работает в Брюсселе в инвестиционном банке, а Глеб живет в столице. Близится отпуск влюбленных, которого они так долго ждали. Неожиданно шеф Милы, месье Гийом, заявляет, что она обязана поехать в Сочи для заключения срочного договора с бизнесменом Богдановым. Мила в отчаянии, но ее предприимчивая подруга Соня находит выход из ситуации.....

Качество: WEB-DLRip
Видео: XviD, ~ 1500 Кбит/с, 720x400, 25 кадр/с
Аудио: AC3, 2 ch, 192 Кбит/с
Продолжительность:4 х ~ 00:50:00
Перевод: Не требуется

Скриншоты

MediaInfo

General
General
Complete name : D:\курортный роман 2.2018.WEB-DLRip.Files-x\01.курортный роман 2.2018.WEB-DLRip.Files-x.avi
Format : AVI
Format/Info : Audio Video Interleave
File size : 631 MiB
Duration : 52 min 2 s
Overall bit rate : 1 697 kb/s
Writing application : VirtualDubMod 1.5.10.3 | www.virtualdub-fr.org || (build 2550/release)
Writing library : VirtualDubMod build 2550/release
Video
ID : 0
Format : MPEG-4 Visual
Format profile : Advanced Simple@L5
Format settings : BVOP1 / Custom Matrix
Format settings, BVOP : 1
Format settings, QPel : No
Format settings, GMC : No warppoints
Format settings, Matrix : Custom
Codec ID : XVID
Codec ID/Hint : XviD
Duration : 52 min 2 s
Bit rate : 1 495 kb/s
Width : 720 pixels
Height : 400 pixels
Display aspect ratio : 16:9
Frame rate : 25.000 FPS
Color space : YUV
Chroma subsampling : 4:2:0
Bit depth : 8 bits
Scan type : Progressive
Compression mode : Lossy
Bits/(Pixel*Frame) : 0.208
Stream size : 556 MiB (88%)
Writing library : XviD 73
Audio
ID : 1
Format : AC-3
Format/Info : Audio Coding 3
Codec ID : 2000
Duration : 52 min 2 s
Bit rate mode : Constant
Bit rate : 192 kb/s
Channel(s) : 2 channels
Channel positions : Front: L R
Sampling rate : 48.0 kHz
Frame rate : 31.250 FPS (1536 SPF)
Bit depth : 16 bits
Compression mode : Lossy
Stream size : 71.5 MiB (11%)
Alignment : Split accross interleaves
Interleave, duration : 40 ms (1.00 video frame)
Interleave, preload duratio : 500 ms
Service kind : Complete Main
Релиз от:
[Profile] [PM]
Display posts:    
Reply to topic

Current time is: 20-Jun 11:18

All times are UTC + 3



You cannot post new topics in this forum
You cannot reply to topics in this forum
You cannot edit your posts in this forum
You cannot delete your posts in this forum
You cannot vote in polls in this forum
You cannot attach files in this forum
You cannot download files in this forum