Улетный экипаж [2 сезон: 1-21 серии из 21] (2018) WEB-DLRip 720p от Files-x

Reply to topic
 
Author Message

bond74 ®

Gender: Male

Longevity: 8 months 8 days

Posts: 554

Post 28-Nov-2018 05:57

[Quote]

Улетный экипаж Оригинальное название: Улетный экипаж
Год выхода: 2018
Жанр: Комедия
Выпущено: Россия, Продюсерский центр «ГОРАД», при участии «ВВП Альянс»
Режиссер: Дмитрий Губарев
В ролях: Алексей Чадов, Наталья Бардо, Никита Тарасов, Юлия Топольницкая, Виктория Дайнеко, Яна Крайнова, Дарья Сагалова, Катрин Асси, Сергей Белов, Андрей Родной, Илья Рогов, Антон Чернов, Игорь Гаспарян, Артём Карасев, Алиса Лозовская
О фильме: «Девушка за штурвалом самолёта – что может быть хуже?» – думал пилот Лёша Кулагин, пока его страхи не оправдались. С помощью шантажа умница, красавица и лучшая в лётном училище Полина Овечкина уговаривает упрямого грубияна бросить грузовые самолёты, возглавить гражданский экипаж и взять её вторым пилотом. Просто Кулагин – единственный шанс Полины, наконец-то, отточить теоретические знания на практике. Ведь лётчики авиакомпании «Восторг Авиа» не готовы делить самолёт хоть и с профессионалом, но на каблуках. Пока она пытается подружиться с новым коллегой, Кулагин строит коварные планы, чтобы вернуть ненавистную соседку на землю.

Качество: WEB-DLRip 720p
Видео: MPEG-4 AVC, ~ 3500 Кбит/с, 1280x720, 25 кадр/с
Аудио: AC3, 2 ch, 192 Кбит/с
Продолжительность: 21 x ~ 00:25:00
Перевод: Не требуется
Субтитры: нет

Скриншоты

MediaInfo

General
General
Unique ID : 291757427323806434793340395439603110115 (0xDB7E6FC393E9A91A8AA3BA4A9AB8D0E3)
Complete name : H:\Улетный экипаж.2.2018.WEB-DL720р.Files-x\01.Улетный экипаж.2.2018.WEB-DL720р.Files-x.mkv
Format : Matroska
File size : 607 MiB
Duration : 23mn 18s
Overall bit rate : 3 641 Kbps
Writing application : Lavf57.71.100
Writing library : Lavf57.71.100
Video
ID : 1
Format : AVC
Format/Info : Advanced Video Codec
Format profile : High@L4.1
Format settings, CABAC : Yes
Format settings, ReFrames : 5 frames
Codec ID : V_MPEG4/ISO/AVC
Duration : 23mn 18s
Bit rate : 3 500 Kbps
Width : 1 280 pixels
Height : 720 pixels
Display aspect ratio : 16:9
Frame rate mode : Variable
Frame rate : 25.000 fps
Color space : YUV
Chroma subsampling : 4:2:0
Bit depth : 8 bits
Scan type : Progressive
Bits/(Pixel*Frame) : 0.152
Stream size : 563 MiB (93%)
Writing library : x264 core 148
Encoding settings : cabac=1 / ref=5 / deblock=1:0:0 / analyse=0x3:0x113 / me=hex / subme=8 / psy=1 / psy_rd=1.00:0.00 / mixed_ref=1 / me_range=16 / chroma_me=1 / trellis=2 / 8x8dct=1 / cqm=0 / deadzone=21,11 / fast_pskip=1 / chroma_qp_offset=-2 / threads=22 / lookahead_threads=3 / sliced_threads=0 / nr=0 / decimate=1 / interlaced=0 / bluray_compat=0 / constrained_intra=0 / bframes=3 / b_pyramid=2 / b_adapt=1 / b_bias=0 / direct=3 / weightb=1 / open_gop=0 / weightp=2 / keyint=250 / keyint_min=25 / scenecut=0 / intra_refresh=0 / rc_lookahead=50 / rc=abr / mbtree=1 / bitrate=3500 / ratetol=1.0 / qcomp=0.60 / qpmin=0 / qpmax=69 / qpstep=4 / ip_ratio=1.40 / aq=1:1.00
Language : English
DURATION : 00:23:18.480000000
Audio
ID : 2
Format : AC-3
Format/Info : Audio Coding 3
Mode extension : CM (complete main)
Codec ID : A_AC3
Duration : 23mn 18s
Bit rate mode : Constant
Bit rate : 192 Kbps
Channel(s) : 2 channels
Channel positions : Front: L R
Sampling rate : 44.1 KHz
Bit depth : 16 bits
Compression mode : Lossy
Delay relative to video : 1mn 5s
Stream size : 32.0 MiB (5%)
Language : English
DURATION : 00:23:18.352000000
Релиз от:
[Profile] [PM]
Display posts:    
Reply to topic

Current time is: 22-Jul 22:33

All times are UTC + 3



You cannot post new topics in this forum
You cannot reply to topics in this forum
You cannot edit your posts in this forum
You cannot delete your posts in this forum
You cannot vote in polls in this forum
You cannot attach files in this forum
You cannot download files in this forum