Жить ради любви [1-8 серии из 8] (2018) WEB-DLRip от Files-x

Reply to topic
 
Author Message

papa1951deda ®

Gender: Male

Longevity: 9 months 4 days

Posts: 277

Location: Казахстан

Post 28-Nov-2018 10:15

[Quote]

Жить ради любви Год выпуска: 2018
Жанр: Мелодрама
Выпущено: Украина, "Стрелка Production"
Режиссёр: Сергей Толкушкин
В ролях: Дарья Егоркина, Валерия Ходос, Артем Мяус, Анастасия Чепелюк, Алексей Яровенко
О фильме: Они давние друзья. Друзья живут беззаботной жизнью, но однажды все меняется. Их дорога пересекается с наркодилером и один из друзей погибает. Его смерть переворачивает их судьбы. Проходит 15 лет. Каждый из друзей строит новую жизнь. К одной из подруг, давно расставшейся со своим возлюбленным, неожиданно для нее и для друзей возлюбленный возвращается. Теперь главной героини предстоит сделать выбор — вернуть прошлое или навсегда проститься с ним. Несмотря на то, что друзья больше не общаются, прошлое их все-таки настигает, и не только их, но их детей…
Качество: WEB-DLRip
Видео: XviD, ~ 1 619 Кбит/с, 720x400, 25 кадр/с
Аудио: AC3, 2 ch, 192 Кбит/с
Продолжительность: 8 x ~ 00:45:00
Перевод: Не требуется
Субтитры: Нет

Скриншоты


MediaInfo

General
Complete name : C:\Users\DOM\Desktop\ВИДЕО\Жить ради любви.(2018).WEB-DLRip.Files-x\01.Жить ради любви.(2018).WEB-DLRip.Files-x.avi
Format : AVI
Format/Info : Audio Video Interleave
File size : 590 MiB
Duration : 45mn 19s
Overall bit rate : 1 820 Kbps
Writing application : VirtualDubMod 1.5.10.3 | www.virtualdub-fr.org || (build 2550/release)
Writing library : VirtualDubMod build 2550/release
Video
ID : 0
Format : MPEG-4 Visual
Format profile : Advanced Simple@L5
Format settings, BVOP : 1
Format settings, QPel : No
Format settings, GMC : No warppoints
Format settings, Matrix : Custom
Codec ID : XVID
Codec ID/Hint : XviD
Duration : 45mn 19s
Bit rate : 1 619 Kbps
Width : 720 pixels
Height : 400 pixels
Display aspect ratio : 16:9
Frame rate : 25.000 fps
Color space : YUV
Chroma subsampling : 4:2:0
Bit depth : 8 bits
Scan type : Progressive
Compression mode : Lossy
Bits/(Pixel*Frame) : 0.225
Stream size : 525 MiB (89%)
Writing library : XviD 73
Audio
ID : 1
Format : AC-3
Format/Info : Audio Coding 3
Mode extension : CM (complete main)
Codec ID : 2000
Duration : 45mn 19s
Bit rate mode : Constant
Bit rate : 192 Kbps
Channel(s) : 2 channels
Channel positions : Front: L R
Sampling rate : 48.0 KHz
Bit depth : 16 bits
Compression mode : Lossy
Stream size : 62.2 MiB (11%)
Alignment : Split accross interleaves
Interleave, duration : 40 ms (1.00 video frame)
Interleave, preload duration : 500 ms
Релиз от:


Last edited by papa1951deda on 2018-12-07 11:20; edited 5 times in total
[Profile] [PM]

Серый1779

Gender: Male

Longevity: 9 months 13 days

Posts: 523

Location: Украина

Post 07-Jan-2019 14:41 (after 1 month 9 days)

[Quote]

Замена релиза на вариант без логотипа канала. Просьба перекачать.
[Profile] [PM]
Display posts:    
Reply to topic

Current time is: 25-Aug 15:24

All times are UTC + 3



You cannot post new topics in this forum
You cannot reply to topics in this forum
You cannot edit your posts in this forum
You cannot delete your posts in this forum
You cannot vote in polls in this forum
You cannot attach files in this forum
You cannot download files in this forum