МосГаз [1-8 серии из 8] (2012) HDTVRip-AVC от Files-x

Reply to topic
 
Author Message

papa1951deda ®

Gender: Male

Longevity: 10 months 25 days

Posts: 329

Location: Казахстан

Post 28-Nov-2018 11:56

[Quote]

МосГаз Год выпуска: 2012
Жанр: детектив, криминал
Выпущено: Студия Русский проект
Режиссёр: Андрей Малюков
В ролях: Анатолий Кузнецов, Марина Александрова, Агния Кузнецова, Андрей Смоляков, Светлана Ходченкова, Юрий Чурсин, Максим Матвеев, Александр Андриенко, Денис Курочка, Иван Оранский, Илья Бутковский, Александр Мякушко, Юрий Воробьев, Юрий Тарасов, Семен Трескунов, Андрей Якимов
О фильме: 1962 год. Москва. Владимир Ионесян, по кличке Мосгаз, стал первым официально признанным серийным маньяком в Советском Союзе. Его кровавые деяния навсегда вошли в историю криминалистики, а его прозвищем мамы пугали детей. Представляясь работником Мосгаза, маньяк свободно проникал в квартиры людей, выбирал жертву и оценивал благосостояние хозяев квартир. Позже следствие докажет причастность Мосгаза к шести убийствам, в том числе на его совести четыре смерти несовершеннолетних граждан СССР. Мало кто знает, что все свои преступления Мосгаз посвятил юной артистке кордебалета. Он убивал с легкостью, словно играл роль. По приказу Хрущева на поимку серийного убийцы отводилось две недели. Приказ был выполнен в срок. Что двигало преступником: жажда наживы, несчастная любовь или болезненное стремление убивать?
Качество: HDTVRip-AVC
Видео: MPEG 4 AVC, ~ 2000 Кбит/с, 1024x576, 25 кадр/с
Аудио: AC3, 2 ch, 192 Кбит/с
Продолжительность: 8 x ~0:52:30
Перевод: Не требуется
Субтитры: Нет

Скриншоты

MediaInfo

Общее
Уникальный идентификатор : 249710142781926150148240487312295924361 (0xBBDC6C9471F1ACD194387D5493F31289)
Полное имя : F:\МосГаз HDTVRip AVC\МосГаз 01_серия_HDTVRip_AVC_by_Серый1779.mkv
Формат : Matroska
Размер файла : 1,36 Гбайт
Продолжительность : 1 ч. 21 м.
Общий поток : 2386 Кбит/сек
Дата кодирования : UTC 2015-01-20 05:44:04
Программа кодирования : mkvmerge v6.1.0 ('Old Devil') built on Mar 4 2013 09:10:42
Библиотека кодирования : libebml v1.3.0 + libmatroska v1.4.0
Видео
Идентификатор : 1
Формат : AVC
Формат/Информация : Advanced Video Codec
Профиль формата : High@L4.1
Параметр CABAC формата : Да
Параметр ReFrames формата : 9 кадров
Идентификатор кодека : V_MPEG4/ISO/AVC
Продолжительность : 1 ч. 21 м.
Битрейт : 2000 Кбит/сек
Ширина : 1024 пикс.
Высота : 576 пикс.
Соотношение сторон : 16:9
Частота кадров : 25,000 кадр/сек
Цветовое пространство : YUV
Подвыборка цветности : 4:2:0
Битовая глубина : 8 бит
Тип развёртки : Прогрессивная
Бит/(Пиксели*Кадры) : 0.136
Размер потока : 1,12 Гбайт (82%)
Библиотека кодирования : x264 core 130 r2273 b3065e6
Настройки программы : cabac=1 / ref=9 / deblock=1:-2:-1 / analyse=0x3:0x133 / me=umh / subme=9 / psy=1 / psy_rd=1.00:0.15 / mixed_ref=1 / me_range=32 / chroma_me=1 / trellis=2 / 8x8dct=1 / cqm=0 / deadzone=21,11 / fast_pskip=0 / chroma_qp_offset=-3 / threads=6 / lookahead_threads=1 / sliced_threads=0 / nr=0 / decimate=1 / interlaced=0 / bluray_compat=0 / constrained_intra=0 / bframes=9 / b_pyramid=2 / b_adapt=2 / b_bias=0 / direct=1 / weightb=1 / open_gop=0 / weightp=2 / keyint=250 / keyint_min=25 / scenecut=40 / intra_refresh=0 / rc=2pass / mbtree=0 / bitrate=2000 / ratetol=1.0 / qcomp=0.60 / qpmin=0 / qpmax=69 / qpstep=4 / cplxblur=20.0 / qblur=0.5 / ip_ratio=1.40 / pb_ratio=1.30 / aq=2:1.00
Основные цвета : BT.709-5, BT.1361, IEC 61966-2-4, SMPTE RP177
Характеристики трансфера : BT.709-5, BT.1361
Коэффициенты матрицы : BT.709-5, BT.1361, IEC 61966-2-4 709, SMPTE RP177
Аудио
Идентификатор : 2
Формат : AC-3
Формат/Информация : Audio Coding 3
Расширение режима : CM (complete main)
Идентификатор кодека : A_AC3
Продолжительность : 1 ч. 21 м.
Вид битрейта : Постоянный
Битрейт : 384 Кбит/сек
Каналы : 6 каналов
Расположение каналов : Front: L C R, Side: L R, LFE
Частота : 48,0 КГц
Битовая глубина : 16 бит
Метод сжатия : С потерями
Размер потока : 225 Мбайт (16%)

h264 log

x264 [info]: frame I:871 Avg QP:14.98 size: 83604
x264 [info]: frame P:31715 Avg QP:17.23 size: 22222
x264 [info]: frame B:90151 Avg QP:19.39 size: 4989
x264 [info]: consecutive B-frames: 1.8% 3.1% 6.7% 72.7% 6.8% 7.9% 0.7% 0.3% 0.0% 0.0%
x264 [info]: mb I I16..4: 6.6% 70.7% 22.7%
x264 [info]: mb P I16..4: 1.9% 10.2% 1.4% P16..4: 44.6% 20.6% 15.9% 0.6% 0.3% skip: 4.6%
x264 [info]: mb B I16..4: 0.1% 0.6% 0.1% B16..8: 33.4% 7.2% 1.8% direct: 5.3% skip:51.6% L0:34.4% L1:47.5% BI:18.1%
x264 [info]: 8x8 transform intra:74.6% inter:51.3%
x264 [info]: coded y,uvDC,uvAC intra: 80.4% 87.8% 67.4% inter: 16.8% 25.1% 3.6%
x264 [info]: i16 v,h,dc,p: 36% 12% 9% 43%
x264 [info]: i8 v,h,dc,ddl,ddr,vr,hd,vl,hu: 19% 11% 10% 7% 9% 11% 10% 11% 11%
x264 [info]: i4 v,h,dc,ddl,ddr,vr,hd,vl,hu: 19% 9% 5% 8% 12% 13% 11% 11% 10%
x264 [info]: i8c dc,h,v,p: 38% 22% 26% 14%
x264 [info]: Weighted P-Frames: Y:3.0% UV:1.4%
x264 [info]: ref P L0: 52.6% 10.6% 17.7% 4.9% 4.6% 3.2% 2.9% 1.5% 1.8% 0.2% 0.0%
x264 [info]: ref B L0: 86.8% 8.2% 2.2% 1.0% 0.7% 0.6% 0.4% 0.2%
x264 [info]: ref B L1: 96.6% 3.4%
x264 [info]: kb/s:1999.91
x264 [total]: encoded 122737 frames, 5.43 fps, 1999.91 kb/s
Релиз от:


Last edited by papa1951deda on 2018-11-28 14:34; edited 5 times in total
[Profile] [PM]

ValkiriaGF

Gender: Female

Longevity: 11 months 4 days

Posts: 25

Location: Северная Пальмира

Post 28-Nov-2018 12:22 (after 25 minutes)

[Quote]

papa1951deda, большая просьба режиссёра в заглавии не прописывать. Я вам исправила, как должно быть.
[Profile] [PM]

papa1951deda ®

Gender: Male

Longevity: 10 months 25 days

Posts: 329

Location: Казахстан

Post 28-Nov-2018 13:33 (after 1 hour 10 minutes)

[Quote]

ValkiriaGF, Спасибо. Я проверяю и исправляю. Нужно время для привыкания.
[Profile] [PM]

Серый1779

Gender: Male

Longevity: 11 months 4 days

Posts: 621

Location: Украина

Post 28-Nov-2018 13:47 (after 14 minutes)

[Quote]

papa1951deda, ошибка в скриншотах. Замените пожалуйста.
[Profile] [PM]

papa1951deda ®

Gender: Male

Longevity: 10 months 25 days

Posts: 329

Location: Казахстан

Post 28-Nov-2018 14:10 (after 23 minutes)

[Quote]

1208papa1951deda, ошибка в скриншотах. Замените пожалуйста.
Исправил. Спасибо.
[Profile] [PM]
Display posts:    
Reply to topic

Current time is: 16-Oct 13:52

All times are UTC + 3



You cannot post new topics in this forum
You cannot reply to topics in this forum
You cannot edit your posts in this forum
You cannot delete your posts in this forum
You cannot vote in polls in this forum
You cannot attach files in this forum
You cannot download files in this forum