Discovery. Мятеж / Mutiny: Survival On The Oceans [1-5 серии из 5] (2017) HDTVRip 720p от GeneralFilm

Reply to topic
 
Author Message

Starik60 ®

Gender: Male

Longevity: 9 months 8 days

Posts: 148

Location: Москва, Россия

Post 28-Nov-2018 12:25

[Quote]

Мятеж / Mutiny: Survival On The Oceans
Год выпуска: 2017
Жанр: Документальный, выживание
Выпущено: США, Discovery Communications, LLC.
О фильме: В 1789 году на британском корабле «Баунти» произошел мятеж. В результате капитан судна Уильям Блай оказался в небольшой шлюпке посреди Тихого океана вместе с девятью верными членами экипажа. Моряки преодолели свыше 6710 км и чудом спаслись. В новом экстремальном шоу девять смельчаков попробуют повторить пусть капитана Блая, ориентируясь на его дневники. Они смогут использовать только традиционные навигационные инструменты, которые были у моряков в XVIII веке. Героям предстоит добывать себе пропитание, как изгнанникам с «Баунти», преодолевать шторма и опасные воды, кишащие акулами. Смогут ли они повторить невероятное путешествие длиной почти 7000 км? Узнаем уже скоро!
Качество: HDTVRip 720p
Видео: MPEG-4 AVC, ~ 4000 Кбит/с, 1280x720
Аудио: MP2, 2 ch, 192 Кбит/с
Продолжительность: 5 х ~ 00:44:00
Перевод: Профессиональный (двухголосый, закадровый

Скриншоты



MediaInfo

General
Unique ID : 146688861139283258785106556635574778987 (0x6E5B3F3C8BFA57D208A7A99CE5C93C6B)
Complete name : H:\Раздачи 3\Мятеж 720p Generalfilm\01 Мятеж, GeneralFilm.mkv
Format : Matroska
Format version : Version 2
File size : 1.29 GiB
Duration : 44 min 5 s
Overall bit rate mode : Constant
Overall bit rate : 4 197 kb/s
Writing application : Lavf54.63.104
Writing library : Lavf54.63.104
Video
ID : 1
Format : AVC
Format/Info : Advanced Video Codec
Format profile : High@L4.1
Format settings : CABAC / 3 Ref Frames
Format settings, CABAC : Yes
Format settings, ReFrames : 3 frames
Codec ID : V_MPEG4/ISO/AVC
Duration : 44 min 5 s
Bit rate mode : Constant
Bit rate : 4 000 kb/s
Width : 1 280 pixels
Height : 720 pixels
Display aspect ratio : 16:9
Frame rate mode : Constant
Frame rate : 50.000 FPS
Standard : PAL
Color space : YUV
Chroma subsampling : 4:2:0
Bit depth : 8 bits
Scan type : Progressive
Bits/(Pixel*Frame) : 0.087
Stream size : 1.21 GiB (93%)
Default : No
Forced : No
Color range : Limited
Color primaries : BT.709
Transfer characteristics : BT.709
Matrix coefficients : BT.709
Audio
ID : 2
Format : MPEG Audio
Format version : Version 1
Format profile : Layer 2
Codec ID : A_MPEG/L2
Codec ID/Hint : MP2
Duration : 44 min 5 s
Bit rate mode : Constant
Bit rate : 192 kb/s
Channel(s) : 2 channels
Sampling rate : 48.0 kHz
Compression mode : Lossy
Delay relative to video : 8 ms
Stream size : 60.6 MiB (5%)
Language : English
Default : Yes
Forced : No
Благодарю за отличный постер ValkiriaGF
Релиз от:
[Profile] [PM]
Display posts:    
Reply to topic

Current time is: 20-Aug 20:19

All times are UTC + 3



You cannot post new topics in this forum
You cannot reply to topics in this forum
You cannot edit your posts in this forum
You cannot delete your posts in this forum
You cannot vote in polls in this forum
You cannot attach files in this forum
You cannot download files in this forum