Пока мы здесь / Sanpo suru shinryakusha (2017) BDRip 1080p

Reply to topic
 
Author Message

Monk ®

Gender: Male

Longevity: 7 months 5 days

Posts: 6994

Location: Казань

Post 28-Nov-2018 12:27

[Quote]

Пока мы здесь / Sanpo suru shinryakusha Год выпуска: 2017
Жанр: Фантастика, драма, мелодрама
Выпущено: Япония
Режиссер: Киёси Куросава
В ролях: Масами Нагасава, Рюхэй Мацуда, Хироки Хасегава, Масахиро Хигасидэ, Кёко Коидзуми, Кадзуя Кодзима, Ацуко Маеда, Кен Мицуйси, Синносукэ Мицусима, Такаси Сасано
О фильме: После семейного скандала Наруми Касэ забирает мужа от доктора. Тот кажется совершенно другим человеком - тихим, спокойным и слегка дезориентированным. В это же время в округе происходит жестокое убийство семьи, подозревают дочь семейства. Репортер Сакурай отправляется на место происшествия и там встречает странного молодого человека, который ищет подозреваемую и просит журналиста стать его проводником в мире людей.

Качество: BDRip 1080p
Видео: MPEG-4 AVC, 10.0 Мбит/с, 1920x804
Аудио: Русский (AC3, 6 ch, 640 Кбит/с), японский (DTS, 6 ch, 1509 Кбит/с)
Продолжительность: 02:10:05
Перевод: Любительский одноголосый [liosaa]
Субтитры: Английские

Скриншоты


MediaInfo

Общее
Уникальный идентификатор : 135967395143744014862096618791843580164 (0x664A5E269E41BC0D692C054F8DEEC904)
Полное имя : D:\Before.We.Vanish.2017.BDRip.1080p.mkv
Формат : Matroska
Версия формата : Version 4 / Version 2
Размер файла : 11,1 Гбайт
Продолжительность : 2 ч. 10 м.
Общий поток : 12,2 Мбит/сек
Дата кодирования : UTC 2018-09-10 11:48:55
Программа кодирования : mkvmerge v26.0.0 ('In The Game') 64-bit
Библиотека кодирования : libebml v1.3.6 + libmatroska v1.4.9
Attachments : poster.jpg
Видео
Идентификатор : 1
Формат : AVC
Формат/Информация : Advanced Video Codec
Профиль формата : High@L4.1
Настройки формата : CABAC / 5 Ref Frames
Параметр CABAC формата : Да
Параметр RefFrames формата : 5 кадров
Идентификатор кодека : V_MPEG4/ISO/AVC
Продолжительность : 2 ч. 10 м.
Битрейт : 10,0 Мбит/сек
Ширина : 1920 пикселей
Высота : 804 пикселя
Соотношение сторон : 2,40:1
Режим частоты кадров : Постоянный
Частота кадров : 23,976 (24000/1001) кадра/сек
Цветовое пространство : YUV
Субдискретизация насыщенности : 4:2:0
Битовая глубина : 8 бит
Тип развёртки : Прогрессивная
Бит/(Пиксели*Кадры) : 0.271
Размер потока : 8,90 Гбайт (80%)
Библиотека кодирования : x264 core 129 r2245+704+36 8e61944 tMod+MixAQ [8-bit@4:2:0 X86_64]
Настройки программы : cabac=1 / ref=5 / deblock=1:-3:-3 / analyse=0x3:0x133 / me=umh / subme=11 / psy=1 / fade_compensate=0.00 / psy_rd=1.05:0.10 / mixed_ref=1 / me_range=64 / chroma_me=1 / trellis=2 / 8x8dct=1 / cqm=0 / deadzone=21,11 / fast_pskip=0 / chroma_qp_offset=-3 / threads=18 / lookahead_threads=3 / sliced_threads=0 / nr=0 / decimate=0 / interlaced=0 / bluray_compat=0 / constrained_intra=0 / fgo=0 / bframes=10 / b_pyramid=2 / b_adapt=2 / b_bias=0 / direct=3 / weightb=1 / open_gop=0 / weightp=2 / keyint=250 / keyint_min=23 / scenecut=40 / intra_refresh=0 / rc=2pass / mbtree=0 / bitrate=10040 / ratetol=1.0 / qcomp=0.70 / qpmin=0 / qpmax=69 / qpstep=4 / cplxblur=20.0 / qblur=0.5 / ip_ratio=1.40 / pb_ratio=1.30 / aq=1 / aq-strength=0.90 / aq-sensitivity=10.00 / aq-ifactor=1.00 / aq-pfactor=1.00 / aq-bfactor=1.00 / aq2=0
Язык : Japanese
Default : Да
Forced : Нет
Аудио #1
Идентификатор : 2
Формат : AC-3
Формат/Информация : Audio Coding 3
Идентификатор кодека : A_AC3
Продолжительность : 2 ч. 10 м.
Вид битрейта : Постоянный
Битрейт : 640 Кбит/сек
Каналы : 6 каналов
Расположение каналов : Front: L C R, Side: L R, LFE
Частота : 48,0 КГц
Частота кадров : 31,250 кадров/сек (1536 SPF)
Битовая глубина : 16 бит
Метод сжатия : С потерями
Размер потока : 595 Мбайт (5%)
Заголовок : VO*liosaa DD 5.1
Язык : Russian
ServiceKind/String : Complete Main
Default : Да
Forced : Нет
Аудио #2
Идентификатор : 3
Формат : DTS
Формат/Информация : Digital Theater Systems
Идентификатор кодека : A_DTS
Продолжительность : 2 ч. 10 м.
Вид битрейта : Постоянный
Битрейт : 1509 Кбит/сек
Каналы : 6 каналов
Расположение каналов : Front: L C R, Side: L R, LFE
Частота : 48,0 КГц
Частота кадров : 93,750 кадра/сек (512 SPF)
Битовая глубина : 24 бит
Метод сжатия : С потерями
Размер потока : 1,37 Гбайт (12%)
Язык : Japanese
Default : Нет
Forced : Нет
Текст
Идентификатор : 4
Формат : UTF-8
Идентификатор кодека : S_TEXT/UTF8
Идентификатор кодека/Информация : UTF-8 Plain Text
Язык : English
Default : Да
Forced : Нет
Меню
00:00:00.000 : en:00:00:00.000
00:04:23.262 : en:00:04:23.262
00:11:41.200 : en:00:11:41.200
00:17:22.708 : en:00:17:22.708
00:28:25.662 : en:00:28:25.662
00:40:08.447 : en:00:40:08.447
00:49:17.663 : en:00:49:17.663
00:57:43.668 : en:00:57:43.668
01:10:40.277 : en:01:10:40.277
01:24:03.788 : en:01:24:03.788
01:33:46.078 : en:01:33:46.078
01:43:48.013 : en:01:43:48.013
01:54:55.305 : en:01:54:55.305
02:02:36.682 : en:02:02:36.682
02:07:45.824 : en:02:07:45.824
[Profile] [PM]
Display posts:    
Reply to topic

Current time is: 20-Jun 11:22

All times are UTC + 3



You cannot post new topics in this forum
You cannot reply to topics in this forum
You cannot edit your posts in this forum
You cannot delete your posts in this forum
You cannot vote in polls in this forum
You cannot attach files in this forum
You cannot download files in this forum