Бегущий по лезвию 2049 / Blade Runner 2049 (2017) BDRip 720p | Лицензия

Reply to topic
 
Author Message

Monk ®

Gender: Male

Longevity: 1 year

Posts: 9691

Location: Казань

Post 28-Nov-2018 13:00

[Quote]

Бегущий по лезвию 2049 / Blade Runner 2049 Год выпуска: 2017
Жанр: Фантастика, триллер
Выпущено: США, Великобритания, Канада, 16:14 Entertainment, Alcon Entertainment, Columbia Pictures
Режиссер: Дени Вильнёв
В ролях: Райан Гослинг, Харрисон Форд, Ана де Армас, Сильвия Хукс, Робин Райт, Маккензи Дэвис, Карла Юри, Ленни Джеймс, Дэйв Батиста, Джаред Лето
О фильме: 2049 год. Технологический прогресс уютно соседствует с моральным разложением и нравственной деградацией. Появилось новое поколение репликантов - совершенных роботов, во всем покорных воле создателей и работающих в межзвездных колониях за имитацию еды. За теми же, кто не хочет выполнять трудовые нормы и время от времени стучит каской по асфальту приезжают специально обученные люди - бегущие по лезвию. Один из таких бегущих узнает нечто, что может окончательно превратить человечество в радиоактивный пепел. И теперь ему необходимо найти бывшего офицера спецподразделения бегущих по лезвию Рика Декарда, чтобы получить ответы на свои вопросы и предотвратить грядущую катастрофу.

Качество: BDRip 720p
Видео: MPEG-4 AVC, 5500 Кбит/с, 1280x534
Аудио: Русский (AC3, 6 ch, 640 Кбит/с), английский (DTS, 6 ch, 1510 Кбит/с)
Продолжительность: 02:43:27
Перевод: Дублированный [Лицензия]
Субтитры: Русские, английские

Скриншоты



MediaInfo

General
Unique ID : 19406751214159919742068417501734264070 (0xE999AB54881041731490C2302825D06)
Complete name : G:\VideoSSD\Blade.Runner.2049.2017.Lic.BDRip.720p.ExKinoRay.mkv
Format : Matroska
Format version : Version 4 / Version 2
File size : 8.72 GiB
Duration : 2 h 43 min
Overall bit rate : 7 634 kb/s
Movie name : Blade Runner 2049 2017 from ExKinoRay
Encoded date : UTC 2018-01-04 03:14:50
Writing application : mkvmerge v19.0.0 ('Brave Captain') 64-bit
Writing library : libebml v1.3.5 + libmatroska v1.4.8
Video
ID : 1
Format : AVC
Format/Info : Advanced Video Codec
Format profile : High@L4.1
Format settings : CABAC / 9 Ref Frames
Format settings, CABAC : Yes
Format settings, ReFrames : 9 frames
Codec ID : V_MPEG4/ISO/AVC
Duration : 2 h 43 min
Bit rate : 5 500 kb/s
Width : 1 280 pixels
Height : 534 pixels
Display aspect ratio : 2.40:1
Frame rate mode : Constant
Frame rate : 23.976 (24000/1001) FPS
Color space : YUV
Chroma subsampling : 4:2:0
Bit depth : 8 bits
Scan type : Progressive
Bits/(Pixel*Frame) : 0.336
Stream size : 6.26 GiB (72%)
Writing library : x264 core 149 r2771+45 509cceb 7mod [8-bit@all X86_64]
Encoding settings : cabac=1 / ref=9 / deblock=1:-1:-1 / analyse=0x3:0x133 / me=umh / subme=11 / psy=1 / fade_compensate=0.00 / psy_rd=0.90:0.10 / mixed_ref=1 / me_range=32 / chroma_me=1 / trellis=2 / 8x8dct=1 / cqm=0 / deadzone=21,11 / fast_pskip=0 / chroma_qp_offset=-4 / threads=12 / lookahead_threads=2 / sliced_threads=0 / nr=0 / decimate=1 / interlaced=0 / bluray_compat=0 / constrained_intra=0 / fgo=0 / bframes=9 / b_pyramid=2 / b_adapt=2 / b_bias=0 / direct=3 / weightb=1 / open_gop=0 / weightp=2 / keyint=250 / keyint_min=23 / scenecut=40 / intra_refresh=0 / rc_lookahead=30 / rc=2pass / mbtree=0 / bitrate=5500 / ratetol=2.0 / qcomp=0.70 / qpmin=0:0:0 / qpmax=69:69:69 / qpstep=4 / cplxblur=20.0 / qblur=0.5 / vbv_maxrate=24000 / vbv_bufsize=24000 / nal_hrd=none / filler=0 / ip_ratio=1.40 / pb_ratio=1.30 / aq=3:1.00 / aq-sensitivity=10.00 / aq-factor=1.00:1.00:1.00 / aq2=0 / aq3=2:[0.50:0.50]:[0.50:0.50]:[0.50:0.50]:[0.50:0.50] / aq3-sensitivity=10.00 / aq3-factor=[1.00:1.00]:[1.00:1.00]:[1.00:1.00] / aq3-boundary=192:64:24
Language : English
Default : Yes
Forced : No
Audio #1
ID : 2
Format : AC-3
Format/Info : Audio Coding 3
Codec ID : A_AC3
Duration : 2 h 43 min
Bit rate mode : Constant
Bit rate : 640 kb/s
Channel(s) : 6 channels
Channel positions : Front: L C R, Side: L R, LFE
Sampling rate : 48.0 kHz
Frame rate : 31.250 FPS (1536 SPF)
Bit depth : 16 bits
Compression mode : Lossy
Stream size : 748 MiB (8%)
Title : Dub [License]
Language : Russian
Service kind : Complete Main
Default : Yes
Forced : No
Audio #2
ID : 3
Format : DTS
Format/Info : Digital Theater Systems
Codec ID : A_DTS
Duration : 2 h 43 min
Bit rate mode : Constant
Bit rate : 1 509 kb/s
Channel(s) : 6 channels
Channel positions : Front: L C R, Side: L R, LFE
Sampling rate : 48.0 kHz
Frame rate : 93.750 FPS (512 SPF)
Bit depth : 24 bits
Compression mode : Lossy
Stream size : 1.72 GiB (20%)
Title : Original
Language : English
Default : No
Forced : No
Text #1
ID : 4
Format : UTF-8
Codec ID : S_TEXT/UTF8
Codec ID/Info : UTF-8 Plain Text
Duration : 2 h 42 min
Bit rate : 2 b/s
Count of elements : 55
Stream size : 2.82 KiB (0%)
Title : Forced
Language : Russian
Default : Yes
Forced : No
Text #2
ID : 5
Format : UTF-8
Codec ID : S_TEXT/UTF8
Codec ID/Info : UTF-8 Plain Text
Duration : 2 h 42 min
Bit rate : 39 b/s
Count of elements : 1071
Stream size : 47.5 KiB (0%)
Title : Full
Language : Russian
Default : No
Forced : No
Text #3
ID : 6
Format : UTF-8
Codec ID : S_TEXT/UTF8
Codec ID/Info : UTF-8 Plain Text
Duration : 2 h 26 min
Bit rate : 24 b/s
Count of elements : 972
Stream size : 26.7 KiB (0%)
Title : Full
Language : English
Default : No
Forced : No
Menu
00:00:00.000 : en:00:00:00.000
00:12:36.172 : en:00:12:36.172
00:23:29.283 : en:00:23:29.283
00:37:00.885 : en:00:37:00.885
00:42:50.318 : en:00:42:50.318
00:49:24.503 : en:00:49:24.503
00:58:35.554 : en:00:58:35.554
01:04:10.680 : en:01:04:10.680
01:15:47.293 : en:01:15:47.293
01:25:12.482 : en:01:25:12.482
01:36:15.061 : en:01:36:15.061
01:50:55.107 : en:01:50:55.107
02:01:36.873 : en:02:01:36.873
02:08:40.379 : en:02:08:40.379
02:16:42.486 : en:02:16:42.486
02:27:46.733 : en:02:27:46.733
[Profile] [PM]
Display posts:    
Reply to topic

Current time is: 13-Dec 14:55

All times are UTC + 3



You cannot post new topics in this forum
You cannot reply to topics in this forum
You cannot edit your posts in this forum
You cannot delete your posts in this forum
You cannot vote in polls in this forum
You cannot attach files in this forum
You cannot download files in this forum