Стрекоза [1-4 серии из 4] (2018) WEB-DL 720p от Files-x

Reply to topic
 
Author Message

Nicodem ®

Gender: Male

Longevity: 6 months 28 days

Posts: 178

Post 28-Nov-2018 14:38

[Quote]

Стрекоза
Год выпуска: 2018
Жанр: Мелодрама, детектив
Выпущено: Россия, Украина, Киевтелефильм, "Армада Филмз"
Режиссер: Валерий Ибрагимов
В ролях: Лесь Заднепровский, Вера Шпак, Тимофей Каратаев, Валерий Баринов, Денис Мартынов, Евгений Ефремов, Николай Боклан, Мария Климова
О фильме: Ирина - аферистка, детдомовка, давно запретившая себе мечтать о семье, привыкшая полагаться только на себя. За способность заболтать кого угодно получившая прозвище Стрекоза. Капитан полиции Игорь - ее полная противоположность. Правильный, порядочный, педантичный. Давно мечтает посадить Стрекозу, которая всегда оставляет его с носом. Эта парочка на дух не выносит друг друга. И ни за что не признается даже самим себе, что их тянет друг к другу. Игорю все же удается поймать Стрекозу, но она оказывается единственной свидетельницей по громкому делу против криминального авторитета Румынцева. Полиция предлагает Ирине сделку: ее показания в обмен на безопасность и "амнистию" всех ее прошлых грешков. Загнанная в угол Стрекоза соглашается, не представляя, что до суда им с Игорем придется жить в другом городе под видом любящих супругов. И без того непростая ситуация усложняется тем, что вечно ссорящуюся парочку селят в коммунальную квартиру, где живет весьма эксцентричный старик-писатель и двое детей, чья мать куда-то исчезла. Так под одной крышей оказываются сразу пять одиночеств, которые по стечению обстоятельств умудрятся стать настоящей семьей...
Качество: WEB-DL 720p
Видео: MPEG-4 AVC, ~ 1753 Кбит/с, 1280x720, 25 кадр/с
Аудио: AC3, 2 ch, 192 Кбит/с
Продолжительность: 4 х 00:51:00
Перевод: Не требуется
Cубтитры: нет

Скриншоты



MediaInfo

General
Unique ID : 63438825550346427664611783657581962641 (0x2FB9DF9598CC3895F77154FD8FCFE591)
Complete name : C:\Users\DOM\Desktop\ВИДЕО\Стрекоза.(2018).WEB-DL (720p).by.Nicodem.Files-x\01.Стрекоза.(2018).WEB-DL (720p).by.Nicodem.Files-x.mkv
Format : Matroska
File size : 733 MiB
Duration : 51mn 36s
Overall bit rate : 1 985 Kbps
Writing application : Lavf56.36.100
Writing library : Lavf56.36.100
Video
ID : 1
Format : AVC
Format/Info : Advanced Video Codec
Format profile : High@L3.1
Format settings, CABAC : Yes
Format settings, ReFrames : 3 frames
Codec ID : V_MPEG4/ISO/AVC
Duration : 51mn 36s
Bit rate : 1 753 Kbps
Width : 1 280 pixels
Height : 720 pixels
Display aspect ratio : 16:9
Frame rate : 25.000 fps
Color space : YUV
Chroma subsampling : 4:2:0
Bit depth : 8 bits
Scan type : Progressive
Bits/(Pixel*Frame) : 0.076
Stream size : 647 MiB (88%)
Language : English
Audio
ID : 2
Format : AC-3
Format/Info : Audio Coding 3
Mode extension : CM (complete main)
Codec ID : A_AC3
Duration : 51mn 36s
Bit rate mode : Constant
Bit rate : 192 Kbps
Channel(s) : 2 channels
Channel positions : Front: L R
Sampling rate : 48.0 KHz
Bit depth : 16 bits
Compression mode : Lossy
Stream size : 70.9 MiB (10%)
Language : English / un
Релиз от:
[Profile] [PM]
Display posts:    
Reply to topic

Current time is: 16-Jun 11:03

All times are UTC + 3



You cannot post new topics in this forum
You cannot reply to topics in this forum
You cannot edit your posts in this forum
You cannot delete your posts in this forum
You cannot vote in polls in this forum
You cannot attach files in this forum
You cannot download files in this forum