Живой [1-16 серии из 16] (2017) HDTVRip от Files-x

Reply to topic
 
Author Message

bond74 ®

Gender: Male

Longevity: 1 year

Posts: 697

Post 28-Nov-2018 15:59

[Quote]

Живой Год выпуска: 2017
Жанр: Детектив
Выпущено: Россия, Киностудия КИТ
Режиссер: Михаил Кабанов (II)
В ролях: Кирилл Кяро, Агата Муцениеце, Маруся Зыкова, Диана Пожарская, Руслан Ягудин, Николай Козак, Александр Хованский, Дмитрий Комов
О фильме: Журналист популярного интернет-издания Олег Сорокин нападает на след могущественного синдиката, промышляющего убийствами самых богатых людей страны. Но проблема в том, что никто не верит в его «теорию заговоров». Вычислив очередную жертву — банкира Лядова, Олег пытается предупредить его о грозящей опасности, но тщетно. Лядова взрывают в собственной машине. Олег продолжает расследование с удвоенной силой и убеждается, что в смерти банкира всё очень неоднозначно. А вскоре и сам журналист становится мишенью таинственной преступной организации.
Качество: HDTVRip
Видео: XviD ~ 1700 Кбит/с, 720x304, 25 кадр/с
Аудио: AC3, 2 ch, 192 Кбит/с
Продолжительность: 16 х ~ 00:44:00
Перевод: Не требуется
Cубтитры: нет

Скриншоты

MediaInfo

General
General
Complete name : D:\Zhivoj.2017.HDTVRip.Files-x\01.Zhivoj.2017.HDTVRip.Files-x.avi
Format : AVI
Format/Info : Audio Video Interleave
File size : 600 MiB
Duration : 44mn 5s
Overall bit rate : 1 903 Kbps
Writing application : VirtualDubMod 1.5.10.3 | www.virtualdub-fr.org || (build 2550/release)
Writing library : VirtualDubMod build 2550/release
Video
ID : 0
Format : MPEG-4 Visual
Format profile : Advanced Simple@L5
Format settings, BVOP : 1
Format settings, QPel : No
Format settings, GMC : No warppoints
Format settings, Matrix : Custom
Codec ID : XVID
Codec ID/Hint : XviD
Duration : 44mn 5s
Bit rate : 1 701 Kbps
Width : 720 pixels
Height : 304 pixels
Display aspect ratio : 2.35:1
Frame rate : 25.000 fps
Color space : YUV
Chroma subsampling : 4:2:0
Bit depth : 8 bits
Scan type : Progressive
Compression mode : Lossy
Bits/(Pixel*Frame) : 0.311
Stream size : 536 MiB (89%)
Writing library : XviD 73
Audio
ID : 1
Format : AC-3
Format/Info : Audio Coding 3
Mode extension : CM (complete main)
Format settings, Endianness : Big
Codec ID : 2000
Duration : 44mn 5s
Bit rate mode : Constant
Bit rate : 192 Kbps
Channel count : 2 channels
Channel positions : Front: L R
Sampling rate : 48.0 KHz
Bit depth : 16 bits
Compression mode : Lossy
Stream size : 60.6 MiB (10%)
Alignment : Split accross interleaves
Interleave, duration : 40 ms (1.00 video frame)
Interleave, preload duration : 500 ms
Релиз от:
[Profile] [PM]
Display posts:    
Reply to topic

Current time is: 10-Dec 17:42

All times are UTC + 3



You cannot post new topics in this forum
You cannot reply to topics in this forum
You cannot edit your posts in this forum
You cannot delete your posts in this forum
You cannot vote in polls in this forum
You cannot attach files in this forum
You cannot download files in this forum