Discovery. Миллионы Пабло Эскобара / Finding Escobar’s Millions [1-6 серии из 6] (2017) HDTVRip 720p от GeneralFilm

Reply to topic
 
Author Message

Starik60 ®

Gender: Male

Longevity: 9 months 13 days

Posts: 148

Location: Москва, Россия

Post 28-Nov-2018 16:07

[Quote]

Миллионы Пабло Эскобара / Finding Escobar’s Millions
Год выпуска: 2017
Жанр: Документальный, криминал, поиски
Выпущено: США, Discovery Communications, LLC.
О фильме: По официальным данным, самый богатый наркобарон в истории Пабло Эскобар при жизни обладал состоянием более 30 млрд долларов, однако не исключено, что денег у него было еще больше. Новая программа «Миллионы Пабло Эскобара» призвана пролить свет на эту тайну. Два бывших агента ЦРУ в сопровождении съемочной группы отправятся на поиски миллионов, спрятанных, если верить городским легендам, где-то в дебрях Центральной Америки. С собой они берут самую современную поисковую технику, в том числе радар, способный обнаруживать объекты под землей. И если деньги Эскобара будут найдены, Discovery Channel станет единственным каналом, который засвидетельствует этот исторический момент. Чем увенчается экспедиция, узнаем совсем скоро!

Качество: HDTVRip 720p
Видео: MPEG-4 AVC, ~ 4000 Кбит/с, 1280x720
Аудио: MP2, 2 ch, 192 Кбит/с
Продолжительность: 6 х ~ 00:44:00
Перевод: Профессиональный (двухголосый, закадровый)

Скриншоты



MediaInfo

General
Unique ID : 70062384073101851219067857891652944051 (0x34B5863B8CB1E11FAD8BDE22849A40B3)
Complete name : H:\Раздачи 3\Миллионы Пабло Эскобара 720p GeneralFilm\01 Миллионы Пабло Эскобара GeneralFilm.mkv
Format : Matroska
Format version : Version 2
File size : 1.28 GiB
Duration : 43 min 42 s
Overall bit rate mode : Constant
Overall bit rate : 4 197 kb/s
Writing application : Lavf54.63.104
Writing library : Lavf54.63.104
Video
ID : 1
Format : AVC
Format/Info : Advanced Video Codec
Format profile : High@L4.1
Format settings : CABAC / 3 Ref Frames
Format settings, CABAC : Yes
Format settings, ReFrames : 3 frames
Codec ID : V_MPEG4/ISO/AVC
Duration : 43 min 42 s
Bit rate mode : Constant
Bit rate : 4 000 kb/s
Width : 1 280 pixels
Height : 720 pixels
Display aspect ratio : 16:9
Frame rate mode : Constant
Frame rate : 50.000 FPS
Standard : PAL
Color space : YUV
Chroma subsampling : 4:2:0
Bit depth : 8 bits
Scan type : Progressive
Bits/(Pixel*Frame) : 0.087
Stream size : 1.20 GiB (93%)
Default : No
Forced : No
Color range : Limited
Color primaries : BT.709
Transfer characteristics : BT.709
Matrix coefficients : BT.709
Audio
ID : 2
Format : MPEG Audio
Format version : Version 1
Format profile : Layer 2
Codec ID : A_MPEG/L2
Codec ID/Hint : MP2
Duration : 43 min 42 s
Bit rate mode : Constant
Bit rate : 192 kb/s
Channel(s) : 2 channels
Sampling rate : 48.0 kHz
Compression mode : Lossy
Delay relative to video : 20 ms
Stream size : 60.0 MiB (5%)
Language : English
Default : Yes
Forced : No

Название серий

01. Крёстный отец.
02. Семья.
03. Заключённый.
04. Джунгли.
05. Хорошая жизнь.
06. Найти икс.
Благодарю за отличный постер ValkiriaGF
Релиз от:
[Profile] [PM]
Display posts:    
Reply to topic

Current time is: 25-Aug 15:24

All times are UTC + 3



You cannot post new topics in this forum
You cannot reply to topics in this forum
You cannot edit your posts in this forum
You cannot delete your posts in this forum
You cannot vote in polls in this forum
You cannot attach files in this forum
You cannot download files in this forum