Discovery. Мегапоезда / Mega Trains [1-6 серии из 6] (2015) HDTVRip от GeneralFilm

Reply to topic
 
Author Message

Starik60 ®

Gender: Male

Longevity: 10 months 10 days

Posts: 162

Location: Москва, Россия

Post 28-Nov-2018 16:21

[Quote]

Мегапоезда / Mega Trains
Год выпуска: 2015
Жанр: Документальный, железная дорога
Выпущено: Канада, Discovery Channel
О фильме: Грузовой железнодорожный транспорт играет важную роль в жизни людей: он связывает между собой разные страны и сближает отдаленные уголки планеты. Зачастую железные дороги прокладывают в труднодоступных местах и перевозят по ним жизненно важные товары. Так, в Мавритании состав длиной в 2,5 км перевозит 22000 тонны железной руды – основного источника богатства этой страны. Этому петляющему между песчаными дюнами поезду предстоит преодолеть 700 км пути. Между тем в Канаде грузовой состав из 45 вагонов должен пройти 1000 км по заснеженным горам, чтобы доставить товары на Аляску. Совершите с нами путешествие на поездах, которые перевозят необычные грузы в любую погоду и при любых обстоятельствах!
Качество: HDTVRip
Видео: XviD, ~ 1900 Кбит/с, 720x400
Аудио: AC3, 2 ch, 192 Кбит/c
Продолжительность: 6 x ~ 00:44:00
Перевод: Профессиональный (одноголосый, закадровый)

Скриншоты



MediaInfo

General
Complete name : H:\Раздачи 3\Мегапоезда GeneralFilm\01 Мегапоезда GeneralFilm.avi
Format : AVI
Format/Info : Audio Video Interleave
File size : 656 MiB
Duration : 43 min 38 s
Overall bit rate : 2 102 kb/s
Writing application : VirtualDubMod 1.5.10.3 | www.virtualdub-fr.org || (build 2550/release)
Writing library : VirtualDubMod build 2550/release
Video
ID : 0
Format : MPEG-4 Visual
Format profile : Advanced Simple@L5
Format settings : BVOP1 / Custom Matrix
Format settings, BVOP : 1
Format settings, QPel : No
Format settings, GMC : No warppoints
Format settings, Matrix : Custom
Codec ID : XVID
Codec ID/Hint : XviD
Duration : 43 min 38 s
Bit rate : 1 900 kb/s
Width : 720 pixels
Height : 400 pixels
Display aspect ratio : 16:9
Frame rate : 25.000 FPS
Color space : YUV
Chroma subsampling : 4:2:0
Bit depth : 8 bits
Scan type : Progressive
Compression mode : Lossy
Bits/(Pixel*Frame) : 0.264
Stream size : 593 MiB (90%)
Writing library : XviD 1.2.1 (UTC 2008-12-04)
Audio
ID : 1
Format : AC-3
Format/Info : Audio Coding 3
Commercial name : Dolby Digital
Codec ID : 2000
Duration : 43 min 38 s
Bit rate mode : Constant
Bit rate : 192 kb/s
Channel(s) : 2 channels
Channel layout : L R
Sampling rate : 48.0 kHz
Frame rate : 31.250 FPS (1536 SPF)
Bit depth : 16 bits
Compression mode : Lossy
Stream size : 59.9 MiB (9%)
Alignment : Split accross interleaves
Interleave, duration : 40 ms (1.00 video frame)
Interleave, preload duratio : 500 ms
Service kind : Complete Main

Название серий

01. Новая Зеландия. Молочный поезд.
02. Австралия. Сахарный поезд.
03. Трансконтинентальный поезд.
04. США. Транспортёр.
05. Франция. Бесстыковой путь.
06. Канада. Аквапоезд.
Благодарю за отличный постер ValkiriaGF
Релиз от:
[Profile] [PM]
Display posts:    
Reply to topic

Current time is: 23-Sep 04:34

All times are UTC + 3



You cannot post new topics in this forum
You cannot reply to topics in this forum
You cannot edit your posts in this forum
You cannot delete your posts in this forum
You cannot vote in polls in this forum
You cannot attach files in this forum
You cannot download files in this forum