Версия / Подразделение N [1-40 серии из 40] (2015) WEB-DLRip от Files-x

Reply to topic
 
Author Message

bond74 ®

Gender: Male

Longevity: 5 months 7 days

Posts: 309

Post 28-Nov-2018 20:43

[Quote]

Версия (Подразделение N) Год выпуска: 2015
Жанр: Детектив, криминал
Выпущено: Россия, ООО "АЛАР Фильм", ООО "ТВОРЧЕСКОЕ ОБЪЕДИНЕНИЕ КЕДР"
Режиссер: Роман Иванов, Константин Фролов
В ролях: Павел Крайнов, Виктория Полторак, Кирилл Болтаев, Алексей Овсянников, Михаил Шкловский, Лариса Маркина, Евгения Шипова, Николай Малаев, Ангелина Коршунова, Ирина Ивинская, Александр Числов, Стасс Классен, Елена Коллегова, Александра Артемьева, Джан Бадмаев
О фильме: «Подразделение N» – новая группа при главном управлении внутренних дел Москвы, призванная расследовать самые нестандартные и запутанные дела. В группу вошли люди с неоднозначной биографией, от которых давно хотели избавиться начальники других подразделений. Это сотрудники полиции, имеющие множество выговоров, втянутые в служебные расследования, нередко пренебрегающие уставом. Их бы давно уволили из органов, если бы не их результативность и уникальные навыки… В группу вошли: майор Виктор Першин – бывший спасатель МЧС, неформальный лидер, принципиальный человек с неуживчивым характером. Старший лейтенант Наталья Борха – в прошлом хирург, мастер восточных единоборств, служила в ОМОНе, где была одной из немногих женщин. Капитан Антон Муравлянников – в подростковом возрасте был отъявленным хулиганом, но благодаря знакомому инспектору по делам несовершеннолетних исправился. Десять лет проработал участковым на «земле». И капитан Никита Соловей – выпускник МГИМО, мажор и ловелас, увлекается боями без правил. От скуки сменил офисную жизнь на службу в полиции. Ко всеобщему удивлению руководителем группы назначают Ивана Новицкого. Он моложе всех членов группы. Майор в 28 лет, которого за глаза все называют Ванечкой и пытаются разгадать секрет его головокружительной карьеры. У каждого из них остались обширные связи из прошлой жизни, которые они активно используют в расследованиях…

Качество: WEB-DLRip
Видео: XviD, ~ 1508 Кбит/с, 720x400, 25 кадр/с
Аудио: AC3, 2 ch, 192 Кбит/с
Продолжительность: 40 х ~ 00:44:00
Перевод: Не требуется
Субтитры: нет

Скриншоты

MediaInfo

General
General
Complete name : D:\versiya (2018).WEB-DLRip.Files-x\01.versiya (2018).WEB-DLRip.Files-x.avi
Format : AVI
Format/Info : Audio Video Interleave
File size : 551 MiB
Duration : 45mn 3s
Overall bit rate : 1 710 Kbps
Writing application : VirtualDubMod 1.5.10.3 | www.virtualdub-fr.org || (build 2550/release)
Writing library : VirtualDubMod build 2550/release
Video
ID : 0
Format : MPEG-4 Visual
Format profile : Advanced Simple@L5
Format settings, BVOP : 1
Format settings, QPel : No
Format settings, GMC : No warppoints
Format settings, Matrix : Custom
Codec ID : XVID
Codec ID/Hint : XviD
Duration : 45mn 3s
Bit rate : 1 508 Kbps
Width : 720 pixels
Height : 400 pixels
Display aspect ratio : 16:9
Frame rate : 25.000 fps
Color space : YUV
Chroma subsampling : 4:2:0
Bit depth : 8 bits
Scan type : Progressive
Compression mode : Lossy
Bits/(Pixel*Frame) : 0.210
Stream size : 486 MiB (88%)
Writing library : XviD 73
Audio
ID : 1
Format : AC-3
Format/Info : Audio Coding 3
Mode extension : CM (complete main)
Format settings, Endianness : Big
Codec ID : 2000
Duration : 45mn 3s
Bit rate mode : Constant
Bit rate : 192 Kbps
Channel count : 2 channels
Channel positions : Front: L R
Sampling rate : 48.0 KHz
Bit depth : 16 bits
Compression mode : Lossy
Stream size : 61.9 MiB (11%)
Alignment : Split accross interleaves
Interleave, duration : 40 ms (1.00 video frame)
Interleave, preload duration : 500 ms
Релиз от:
[Profile] [PM]
Display posts:    
Reply to topic

Current time is: 22-Apr 18:20

All times are UTC + 3



You cannot post new topics in this forum
You cannot reply to topics in this forum
You cannot edit your posts in this forum
You cannot delete your posts in this forum
You cannot vote in polls in this forum
You cannot attach files in this forum
You cannot download files in this forum