Соседи / Чугунск Style [1-16 серии из 16] (2012) WEB-DLRip от GeneralFilm | КПК

Reply to topic
 
Author Message

GORGIK ®

Gender: Male

Longevity: 1 year

Posts: 181

Location: СССР

Post 12-Jul-2019 15:21

[Quote]

Соседи / Чугунск Style Год выпуска: 2012
Жанр: Комедия
Выпущено: Россия, «Всемирные Русские Студии» (RWS), Группа компаний «ВайТ Медиа»
Режиссер: Елена Новикова (I), Фёдор Красноперов, Михаил Богдасаров
В ролях: Сергей Габриэлян, Мария Аронова, Арунас Сакалаускас, Ольга Тумайкина, Егор Долгополов, Беата Тишкевич, Владимир Крашенинников
О фильме: Как говорят американцы: «Прежде чем купить дом — подружись с соседом». Как говорим мы: «У соседа корова сдохла — пустячок, а приятно».Действие комедии разворачивается в элитном поселке, находящемся в двадцати километрах от города Чугунска. По задумке строительной компании, посёлок должен был стать местной «Рублёвкой». Но грянул кризис, и компания разорилась, успев построить только два коттеджа. Как раз эти два коттеджа в глуши и «посчастливилось» приобрести нашим героям: русской семье Полевых и американской семья Шенкли. Так начинаются забавные и трудные взаимоотношения двух разных семей и разных менталитетов. Для Полевых Шенкли — тупые, жирные «америкосы». Для Шенкли Полевые, как все русские — дикие пьяные коммунисты. Бытовые споры похожи на холодную войну. В роли «оружия сдерживания» — необходимые в быту коммуникации: на территории участка Полевых расположен вентиль общего водопровода, на территории Шенкли — общий электрический рубильник. Каждый раз во время обострения соседских отношений семью угрожают воспользоваться своим «оружием», но каждый раз побеждает здравый смысл… Потому что если на многие годы твои соседи — это одна единственная семья, то лучших соседей просто не найти!

Качество: WEB-DLRip | КПК
Видео: MPEG-4 AVC (x264), 640x360, ~500 kbps, 24.000 fps
Аудио: AAC LC, 44.1 KHz, 2 ch, 128 Kbps
Продолжительность: 16 x ~ 00:48:00
Перевод / Озвучка: Не требуется [Русский]
Cубтитры: нет

Скриншоты

MediaInfo

Complete name : F:КИНОSosedi.S01.2012.AVC.WEB-DLRip.KPK.GFSosedi.s01e16.2012.AVC.WEB-DLRip.KPK.GF.mp4
Format : MPEG-4
Codec ID : M4V (isom/iso2/avc1)
File size : 219 MiB
Duration : 48 min 14 s
Overall bit rate mode : Variable
Overall bit rate : 634 kb/s
Writing application : Lavf53.19.0
Video
ID : 1
Format : AVC
Format/Info : Advanced Video Codec
Format profile : High@L4.1
Format settings, CABAC : Yes
Format settings, RefFrames : 8 frames
Codec ID : avc1
Codec ID/Info : Advanced Video Coding
Duration : 48 min 13 s
Source duration : 5 min 16 s
Bit rate : 500 kb/s
Width : 640 pixels
Height : 360 pixels
Display aspect ratio : 16:9
Frame rate mode : Constant
Frame rate : 24.000 FPS
Color space : YUV
Chroma subsampling : 4:2:0
Bit depth : 8 bits
Scan type : Progressive
Bits/(Pixel*Frame) : 0.090
Stream size : 172 MiB (79%)
Source stream size : 172 MiB (79%)
Writing library : x264 core 148 r2638 7599210
Encoding settings : cabac=1 / ref=8 / deblock=1:-2:-2 / analyse=0x3:0x133 / me=umh / subme=10 / psy=1 / psy_rd=1.00:0.00 / mixed_ref=1 / me_range=24 / chroma_me=1 / trellis=2 / 8x8dct=1 / cqm=0 / deadzone=21,11 / fast_pskip=1 / chroma_qp_offset=-2 / threads=6 / lookahead_threads=1 / sliced_threads=0 / nr=0 / decimate=0 / interlaced=0 / bluray_compat=0 / constrained_intra=0 / bframes=8 / b_pyramid=2 / b_adapt=2 / b_bias=0 / direct=3 / weightb=1 / open_gop=0 / weightp=2 / keyint=240 / keyint_min=121 / scenecut=40 / intra_refresh=0 / rc_lookahead=40 / rc=2pass / mbtree=1 / bitrate=500 / ratetol=1.0 / qcomp=0.60 / qpmin=0 / qpmax=69 / qpstep=4 / cplxblur=20.0 / qblur=0.5 / ip_ratio=1.40 / aq=1:1.00
Menus : 3
mdhd_Duration : 2893961
Audio
ID : 2
Format : AAC
Format/Info : Advanced Audio Codec
Format profile : LC
Codec ID : 40
Duration : 48 min 14 s
Bit rate mode : Variable
Bit rate : 128 kb/s
Channel(s) : 2 channels
Channel positions : Front: L R
Sampling rate : 44.1 kHz
Frame rate : 43.066 FPS (1024 SPF)
Compression mode : Lossy
Stream size : 44.1 MiB (20%)
Default : Yes
Alternate group : 1
Menus : 3
Релиз от:
[Profile] [PM]
Display posts:    
Reply to topic

Current time is: 22-Nov 09:07

All times are UTC + 3



You cannot post new topics in this forum
You cannot reply to topics in this forum
You cannot edit your posts in this forum
You cannot delete your posts in this forum
You cannot vote in polls in this forum
You cannot attach files in this forum
You cannot download files in this forum