Сумеречные охотники / Shadowhunters [1-3 сезоны: 1-55 серии из 55] (2016-2018) WEB-DLRip от Generalfilm | КПК | NewStudio

Reply to topic
 
Author Message

GORGIK ®

Gender: Male

Longevity: 8 months 6 days

Posts: 124

Location: СССР

Post 12-Jul-2019 15:28

[Quote]

Сумеречные охотники / Shadowhunters Год выпуска: 2016
Жанр: Фэнтези
Выпущено: США, Constantin Film, Don Carmody Television, Unique Features
Режиссер: Майрзи Алмас, Тауния Маккирнан, Энди Волк, Оз Скотт
В ролях: Кэтрин МакНамара, Доминик Шервуд, Альберто Розенде, Мэттью Даддарио, Эмерод Тубия, Айзая Мустафа, Гарри Шам мл., Алан Ван Спрэнг, Джон Кор, Джоэль Лабелль, Максим Рой, Паулино Нюнс, Стефани Беннетт, Джордан Хадима, Дэвид Кастро, Шэйлин Гарнетт, Кейтлин Вонг, Кристина Кокс, Джейд Хассун, Никола Коррейя-Дамуд
О фильме: Невзрачная и ничем не примечательная девушка Клэри Фрэй в свой 18-й день рождения узнает, что она является наследницей древнего семейства Сумеречных Охотников - таинственного клана полулюдей-полуангелов, которые обороняют мир от демонических тварей. После похищения матери девушка вместе со своим другом Саймоном и сумеречным охотником Джейсом пытается ее спасти и... попадает в другую реальность.

Качество: WEB-DLRip | КПК
Видео: MPEG-4 AVC (x264), 640x360, ~500 kbps, 23.976 fps
Аудио: AAC LC, 48.0 KHz, 2 ch, 128 Kbps
Продолжительность: 55 x ~ 00:42:00
Перевод / Озвучка: Профессиональный [многоголосый]
Cубтитры: нет

Скриншоты

MediaInfo

Complete name : F:КИНОSumerechnye.Ohotniki.AVC.KPK.GFSumerechnye.Ohotniki.S01.2016.AVC.WEB-DLRip.KPK.NS.GFSumerechnye.Ohotniki.s01e05.2016.AVC.WEB-DLRip.KPK.NS.GF.mp4
Format : MPEG-4
Codec ID : M4V (isom/iso2/avc1)
File size : 194 MiB
Duration : 42 min 52 s
Overall bit rate mode : Variable
Overall bit rate : 634 kb/s
Writing application : Lavf53.19.0
Video
ID : 1
Format : AVC
Format/Info : Advanced Video Codec
Format profile : High@L4.1
Format settings, CABAC : Yes
Format settings, RefFrames : 8 frames
Codec ID : avc1
Codec ID/Info : Advanced Video Coding
Duration : 42 min 51 s
Bit rate : 500 kb/s
Width : 640 pixels
Height : 360 pixels
Display aspect ratio : 16:9
Frame rate mode : Constant
Frame rate : 23.976 (24000/1001) FPS
Color space : YUV
Chroma subsampling : 4:2:0
Bit depth : 8 bits
Scan type : Progressive
Bits/(Pixel*Frame) : 0.091
Stream size : 153 MiB (79%)
Writing library : x264 core 148 r2638 7599210
Encoding settings : cabac=1 / ref=8 / deblock=1:-2:-2 / analyse=0x3:0x133 / me=umh / subme=10 / psy=1 / psy_rd=1.00:0.00 / mixed_ref=1 / me_range=24 / chroma_me=1 / trellis=2 / 8x8dct=1 / cqm=0 / deadzone=21,11 / fast_pskip=1 / chroma_qp_offset=-2 / threads=6 / lookahead_threads=1 / sliced_threads=0 / nr=0 / decimate=0 / interlaced=0 / bluray_compat=0 / constrained_intra=0 / bframes=8 / b_pyramid=2 / b_adapt=2 / b_bias=0 / direct=3 / weightb=1 / open_gop=0 / weightp=2 / keyint=240 / keyint_min=121 / scenecut=40 / intra_refresh=0 / rc_lookahead=40 / rc=2pass / mbtree=1 / bitrate=500 / ratetol=1.0 / qcomp=0.60 / qpmin=0 / qpmax=69 / qpstep=4 / cplxblur=20.0 / qblur=0.5 / ip_ratio=1.40 / aq=1:1.00
Menus : 3
Audio
ID : 2
Format : AAC
Format/Info : Advanced Audio Codec
Format profile : LC
Codec ID : 40
Duration : 42 min 52 s
Bit rate mode : Variable
Bit rate : 128 kb/s
Channel(s) : 2 channels
Channel positions : Front: L R
Sampling rate : 48.0 kHz
Frame rate : 46.875 FPS (1024 SPF)
Compression mode : Lossy
Stream size : 39.2 MiB (20%)
Default : Yes
Alternate group : 1
Menus : 3
Релиз от:
[Profile] [PM]
Display posts:    
Reply to topic

Current time is: 22-Jul 09:39

All times are UTC + 3



You cannot post new topics in this forum
You cannot reply to topics in this forum
You cannot edit your posts in this forum
You cannot delete your posts in this forum
You cannot vote in polls in this forum
You cannot attach files in this forum
You cannot download files in this forum