Пока цветёт папоротник [1-13 серии из 13] (2012) WEB-DLRip от GeneralFilm | КПК

Reply to topic
 
Author Message

GORGIK ®

Gender: Male

Longevity: 1 year

Posts: 181

Location: СССР

Post 12-Jul-2019 15:45

[Quote]

Пока цветёт папоротник Год выпуска: 2012
Жанр: Фэнтези
Выпущено: Россия, ИВД Production в сотрудничестве с кинокомпанией "Белый единорог"
Режиссер: Евгений Бедарев
В ролях: Александр Петров (IX), Татьяна Орлова, Павел Крайнов, Роман Курцын, Светлана Суханова, Алла Подчуфарова, Алексей Васильев (II), Юлия Самойленко, Елена Николаева (II), Сергей Майоров (III), Дмитрий Бедарев, Ольга Юрасова, Александр Никольский (II), Софья Ледовских, Константин Адаев, Алексей Лосихин, Александр Шестопалов, Виктор Мютников, Залим Мирзоев, Александр Мезенцев и др.
О фильме: В ту ночь Кирилл проснулся от собственного крика. Его мучили кошмары: мелькали заброшенные колодцы, черные деревья, глаза оборотней и еще что-то невразумительное. «Опять эта ерунда», - подумал Кирилл и подошел к распахнутому окну. Далеко внизу шумела ночная Москва. Воздух был душный и липкий. До 7 июля оставалось несколько дней. Несколько дней, которые отделяли Кирилла от важного события – ночи на Ивана Купалу. Он и не подозревает еще, что буквально завтра окажется в далекой Сибири, что среди вековых кедров и обрывистых скал Алтая его самого, сестру Сашу и нескольких случайных попутчиков закружит водоворот приключений, вынуждая то убегать от погони, то пробираться тайными тропами, то барахтаться среди порогов могучей Катуни! Однако герои даже не могли предположить, что все случившееся с ними – не просто цепь совпадений, а невидимая борьба мистических сил. Разве могли обычные туристы, дети цивилизованного мира понять, что они уже давно оказались в зачарованном и таинственном месте, где реальность не подчиняется обычным законам? Теперь, чтобы спастись от опасности, найти друг друга и выйти живыми из схватки с неведомыми силами, у героев остается слишком мало времени! Всего несколько часов, пока не настанет ночь на Ивана Купалу и не зацветет волшебный папоротник! Тот самый сказочный цветок, который позволяет видеть клады под землей, читать мысли людей и повелевать духами.

Качество: WEB-DLRip | КПК
Видео: MPEG-4 AVC (x264), 640x360, ~500 kbps, 25.000 fps
Аудио: AAC LC, 48.0 KHz, 2 ch, 128 Kbps
Продолжительность: 13 x ~ 00:47:00
Перевод / Озвучка: Не требуется [Русский]
Cубтитры: нет
Опосля

Скриншоты

MediaInfo

Complete name : F:КИНОPoka.Cvetyot.Paporotnik.S01.2012.AVC.WEB-DLRip.KPK.GFPoka.Cvetyot.Paporotnik.s01e01.2012.AVC.WEB-DLRip.KPK.GF.mp4
Format : MPEG-4
Codec ID : M4V (isom/iso2/avc1)
File size : 216 MiB
Duration : 47 min 35 s
Overall bit rate mode : Variable
Overall bit rate : 634 kb/s
Writing application : Lavf53.19.0
Video
ID : 1
Format : AVC
Format/Info : Advanced Video Codec
Format profile : High@L4.1
Format settings, CABAC : Yes
Format settings, RefFrames : 8 frames
Codec ID : avc1
Codec ID/Info : Advanced Video Coding
Duration : 47 min 35 s
Bit rate : 500 kb/s
Width : 640 pixels
Height : 360 pixels
Display aspect ratio : 16:9
Frame rate mode : Constant
Frame rate : 25.000 FPS
Color space : YUV
Chroma subsampling : 4:2:0
Bit depth : 8 bits
Scan type : Progressive
Bits/(Pixel*Frame) : 0.087
Stream size : 170 MiB (79%)
Writing library : x264 core 148 r2638 7599210
Encoding settings : cabac=1 / ref=8 / deblock=1:-1:-1 / analyse=0x3:0x133 / me=umh / subme=10 / psy=1 / psy_rd=1.00:0.00 / mixed_ref=1 / me_range=24 / chroma_me=1 / trellis=2 / 8x8dct=1 / cqm=0 / deadzone=21,11 / fast_pskip=1 / chroma_qp_offset=-2 / threads=6 / lookahead_threads=1 / sliced_threads=0 / nr=0 / decimate=1 / interlaced=0 / bluray_compat=0 / constrained_intra=0 / bframes=8 / b_pyramid=2 / b_adapt=2 / b_bias=0 / direct=3 / weightb=1 / open_gop=0 / weightp=2 / keyint=250 / keyint_min=126 / scenecut=40 / intra_refresh=0 / rc_lookahead=40 / rc=2pass / mbtree=1 / bitrate=500 / ratetol=1.0 / qcomp=0.60 / qpmin=0 / qpmax=69 / qpstep=4 / cplxblur=20.0 / qblur=0.5 / ip_ratio=1.40 / aq=1:1.00
Menus : 3
Audio
ID : 2
Format : AAC
Format/Info : Advanced Audio Codec
Format profile : LC
Codec ID : 40
Duration : 47 min 35 s
Bit rate mode : Variable
Bit rate : 128 kb/s
Channel(s) : 2 channels
Channel positions : Front: L R
Sampling rate : 48.0 kHz
Frame rate : 46.875 FPS (1024 SPF)
Compression mode : Lossy
Stream size : 43.5 MiB (20%)
Default : Yes
Alternate group : 1
Menus : 3
Релиз от:
[Profile] [PM]
Display posts:    
Reply to topic

Current time is: 22-Nov 09:07

All times are UTC + 3



You cannot post new topics in this forum
You cannot reply to topics in this forum
You cannot edit your posts in this forum
You cannot delete your posts in this forum
You cannot vote in polls in this forum
You cannot attach files in this forum
You cannot download files in this forum