На краю [1-8 серии из 8] (2018) WEB-DLRip от GeneralFilm | КПК

Reply to topic
 
Author Message

GORGIK ®

Gender: Male

Longevity: 1 year

Posts: 181

Location: СССР

Post 12-Jul-2019 15:57

[Quote]

На краю Год выпуска: 2018
Жанр: Мелодрама
Выпущено: Россия, Кинокомпания Русское
Режиссер: Евгений Лаврентьев
В ролях: Диана Пожарская, Софья Шуткина, Феруза Рузиева, Кирилл Дыцевич, Наталья Швец (II), Николай Фоменко, Евгения Дмитриева, Владимир Верёвочкин, Юлия Ауг, Никита Тезин, Артём Шкляев, Бесо Гатаев, Дмитрий Муляр
О фильме: О жизни, любви и препятствиях, которые иногда кажется такими непреодолимыми. Пройти достойно испытания, не согнуться под гнетом проблем быта и существования, удается не всем, к сожалению. Для этого необходимы выдержка, устойчивость и немного терпения. В делах любви не должно быть спешки, зато всегда должны присутствовать доверие, уважение и преданность.Студентка престижного столичного вуза Лена живёт в благополучной семье. Но её мир рушится, когда она узнаёт о предательстве любимого человека, с которым мечтала связать жизнь

Качество: WEB-DLRip | КПК
Видео: MPEG-4 AVC (x264), 640x272, ~500 kbps, 25.000 fps
Аудио: AAC LC, 44.1 KHz, 2 ch, 128 Kbps
Продолжительность: 8 х ~ 00:52:00
Перевод / Озвучка: Не требуется [Русский]
Cубтитры: нет

Скриншоты

MediaInfo

Complete name : N:киноNa.Krayu.S01.2018.AVC.WEB-DLRip.KPK.GFNa.Krayu.s01e03.2018.AVC.WEB-DLRip.KPK.GF.mp4
Format : MPEG-4
Codec ID : M4V (isom/iso2/avc1)
File size : 236 MiB
Duration : 52 min 6 s
Overall bit rate mode : Variable
Overall bit rate : 634 kb/s
Writing application : Lavf53.19.0
Video
ID : 1
Format : AVC
Format/Info : Advanced Video Codec
Format profile : High@L4.1
Format settings : CABAC / 8 Ref Frames
Format settings, CABAC : Yes
Format settings, ReFrames : 8 frames
Codec ID : avc1
Codec ID/Info : Advanced Video Coding
Duration : 52 min 6 s
Bit rate : 500 kb/s
Width : 640 pixels
Height : 272 pixels
Display aspect ratio : 2.35:1
Frame rate mode : Constant
Frame rate : 25.000 FPS
Color space : YUV
Chroma subsampling : 4:2:0
Bit depth : 8 bits
Scan type : Progressive
Bits/(Pixel*Frame) : 0.115
Stream size : 186 MiB (79%)
Writing library : x264 core 146 r2538 121396c
Encoding settings : cabac=1 / ref=8 / deblock=1:-1:-1 / analyse=0x3:0x133 / me=umh / subme=10 / psy=1 / psy_rd=1.00:0.00 / mixed_ref=1 / me_range=24 / chroma_me=1 / trellis=2 / 8x8dct=1 / cqm=0 / deadzone=21,11 / fast_pskip=1 / chroma_qp_offset=-2 / threads=12 / lookahead_threads=2 / sliced_threads=0 / nr=0 / decimate=1 / interlaced=0 / bluray_compat=0 / constrained_intra=0 / bframes=8 / b_pyramid=2 / b_adapt=2 / b_bias=0 / direct=3 / weightb=1 / open_gop=0 / weightp=2 / keyint=250 / keyint_min=126 / scenecut=40 / intra_refresh=0 / rc_lookahead=40 / rc=2pass / mbtree=1 / bitrate=500 / ratetol=1.0 / qcomp=0.60 / qpmin=0 / qpmax=69 / qpstep=4 / cplxblur=20.0 / qblur=0.5 / ip_ratio=1.40 / aq=1:1.00
Menus : 3
Audio
ID : 2
Format : AAC
Format/Info : Advanced Audio Codec
Format profile : LC
Codec ID : mp4a-40-2
Duration : 52 min 6 s
Bit rate mode : Variable
Bit rate : 128 kb/s
Channel(s) : 2 channels
Channel positions : Front: L R
Sampling rate : 44.1 kHz
Frame rate : 43.066 FPS (1024 SPF)
Compression mode : Lossy
Stream size : 47.7 MiB (20%)
Default : Yes
Alternate group : 1
Menus : 3
Релиз от:
[Profile] [PM]
Display posts:    
Reply to topic

Current time is: 22-Nov 09:08

All times are UTC + 3



You cannot post new topics in this forum
You cannot reply to topics in this forum
You cannot edit your posts in this forum
You cannot delete your posts in this forum
You cannot vote in polls in this forum
You cannot attach files in this forum
You cannot download files in this forum