Небо в огне [1-12 серии из 12] (2010) WEB-DLRip от GeneralFilm | КПК

Reply to topic
 
Author Message

GORGIK ®

Gender: Male

Longevity: 8 months 6 days

Posts: 124

Location: СССР

Post 12-Jul-2019 16:09

[Quote]

Небо в огне Год выпуска: 2010
Жанр: ВОВ (Великая Отечественная война)
Выпущено: Россия, Украина, Star Media по заказу НТВ
Режиссер: Дмитрий Черкасов
В ролях: Евгений Пронин, Иван Стебунов, Артем Ткаченко, Владимир Яглыч, Юлия Снигирь, Михаил Евланов, Елена Полякова, Дмитрий Фрид, Нина Курпякова, Павел Трубинер, Оксана Кутузова, Андрей Егоров, Владимир Турчинский, Максим Меркулов, Александр Андриенко, Юрий Колганов, Анатолий Кот, Юрий Кузьменков, Владимир Литвинов, Андрей Лукьянов, Евгений Москалев, Игорь Савочкин, Сергей Чирков, Алиса Богарт (Богачева), Максим Браматкин, Анна Гученкова, Владимир Капустин (II), Николай Качура, Лариса Ломаскина, Алексей Неклюдов, Александр Новик, Пётр Олев, Александр Соловьев (младший), Владимир Балдов, Максим Важов
О фильме: История сериала охватывает период с 1939 по 1945 годы и повествует о жизни отважных советских летчиков, на чью долю выпала Великая Отечественная война. Главный герой - летчик-истребитель Владимир Самойлов - простой детдомовский парень, «заболевший» небом ещё в детстве. Осуществив свою мечту, он поступает в летное училище, и небо становится его вторым домом на всю жизнь.
Одним погожим июньским днем небо зазвучало монотонным гулом воющих бомб и земля окропилась кровью. Великая Отечественная Война обрушилась на плечи вчерашних выпускников летного училища - молодых офицеров Владимира Самойлова, одессита Костю Марецкого, романтика Колю Воронина и уральского богатыря Василия Астахова. Война стала их лучшим учителем, превратив в настоящих хозяев неба. При этом друзьям предстоит познать все ужасы войны – проверить свою дружбу, найти и потерять настоящую любовь, увидеть как умирают близкие, сохранить честь и достоинство и быть готовым к смерти каждую минуту... Не все из них вернутся домой, чтобы встретить долгожданную победу со слезами на глазах.

Качество: WEB-DLRip | КПК
Видео: MPEG-4 AVC (x264), 640x360, ~500 kbps, 25.000 fps
Аудио: AAC LC, 44.1 KHz, 2 ch, 128 Kbps
Продолжительность: 12 x ~ 00:46:00
Перевод / Озвучка: Не требуется [Русский]
Cубтитры: нет

Скриншоты

MediaInfo

Complete name : N:киноNebo.V.Ogne.S01.2010.AVC.WEB-DLRip.KPK.GFNebo.V.Ogne.s01e01.2010.AVC.WEB-DLRip.KPK.GF.mp4
Format : MPEG-4
Codec ID : M4V (isom/iso2/avc1)
File size : 208 MiB
Duration : 46 min 1 s
Overall bit rate mode : Variable
Overall bit rate : 633 kb/s
Writing application : Lavf53.19.0
Video
ID : 1
Format : AVC
Format/Info : Advanced Video Codec
Format profile : High@L4.1
Format settings : CABAC / 8 Ref Frames
Format settings, CABAC : Yes
Format settings, ReFrames : 8 frames
Codec ID : avc1
Codec ID/Info : Advanced Video Coding
Duration : 46 min 1 s
Bit rate : 500 kb/s
Width : 640 pixels
Height : 360 pixels
Display aspect ratio : 16:9
Frame rate mode : Constant
Frame rate : 25.000 FPS
Color space : YUV
Chroma subsampling : 4:2:0
Bit depth : 8 bits
Scan type : Progressive
Bits/(Pixel*Frame) : 0.087
Stream size : 164 MiB (79%)
Writing library : x264 core 146 r2538 121396c
Encoding settings : cabac=1 / ref=8 / deblock=1:-1:-1 / analyse=0x3:0x133 / me=umh / subme=10 / psy=1 / psy_rd=1.00:0.00 / mixed_ref=1 / me_range=24 / chroma_me=1 / trellis=2 / 8x8dct=1 / cqm=0 / deadzone=21,11 / fast_pskip=1 / chroma_qp_offset=-2 / threads=12 / lookahead_threads=2 / sliced_threads=0 / nr=0 / decimate=1 / interlaced=0 / bluray_compat=0 / constrained_intra=0 / bframes=8 / b_pyramid=2 / b_adapt=2 / b_bias=0 / direct=3 / weightb=1 / open_gop=0 / weightp=2 / keyint=250 / keyint_min=126 / scenecut=40 / intra_refresh=0 / rc_lookahead=40 / rc=2pass / mbtree=1 / bitrate=500 / ratetol=1.0 / qcomp=0.60 / qpmin=0 / qpmax=69 / qpstep=4 / cplxblur=20.0 / qblur=0.5 / ip_ratio=1.40 / aq=1:1.00
Menus : 3
Audio
ID : 2
Format : AAC
Format/Info : Advanced Audio Codec
Format profile : LC
Codec ID : mp4a-40-2
Duration : 46 min 1 s
Bit rate mode : Variable
Bit rate : 128 kb/s
Channel(s) : 2 channels
Channel positions : Front: L R
Sampling rate : 44.1 kHz
Frame rate : 43.066 FPS (1024 SPF)
Compression mode : Lossy
Stream size : 42.1 MiB (20%)
Default : Yes
Alternate group : 1
Menus : 3
Релиз от:
[Profile] [PM]
Display posts:    
Reply to topic

Current time is: 22-Jul 09:40

All times are UTC + 3



You cannot post new topics in this forum
You cannot reply to topics in this forum
You cannot edit your posts in this forum
You cannot delete your posts in this forum
You cannot vote in polls in this forum
You cannot attach files in this forum
You cannot download files in this forum