Discovery. Разрушители легенд / Mythbusters [17 сезон: 1-12 серии из 12] (2017) HDTVRip 720р от GeneralFilm

Reply to topic
 
Author Message

Starik60 ®

Gender: Male

Longevity: 7 months 5 days

Posts: 137

Location: Москва, Россия

Post 18-Nov-2018 14:07

[Quote]

Разрушители легенд / Mythbusters
Год выпуска: 2017
Жанр: Документальный, научно-познавательный, шоу
Выпущено: США, Австралия, Discovery Communications, Beyond Distribution
Режиссер: Элис Дэллоу, Табита Лентл, Лорен Грэй Уильямс
В ролях: Брайан Лоуден, Джон Ланг
О фильме: Соскучились по разрушителям легенд? Встречайте новое поколение, которое в лучших традициях шоу подвергает испытаниям популярные мифы, городские легенды и киношные трюки! Проектам Брайана Лоудена и Джона Ланга нет числа: они проводят эксперименты с мечами на ракетной тяге и взрывающимися газовыми баллонами, а также устраивают аварии для проверок подушек безопасности. Новым разрушителям легенд не терпится разузнать, существует ли такое явление, как отложенная смерть, и может ли вора, застрявшего в каминной трубе, выкурить взрыв пропана. Изобретательные мастера на все руки ставят и другие взрывные эксперименты, и тут им понадобится помощь «старой гвардии». Когда потрясающие трюки ещё и записывают с помощью высокоскоростных камер, наука начинает играть новыми красками!

Качество: HDTVRip 720p
Видео: MPEG-4 AVC, ~ 4000 Кбит/с, 1280x720
Аудио: MP2, 2 ch, 192 Кбит/с
Продолжительность: 12 x ~ 00:44:00
Перевод: Профессиональный (двухголосый, закадровый)

Название серий

01. Снос голов.
02. Труба-пушка.
03. Труп-дублёр.
04. Смертельная духовка и смертоносный бойлер.
05. Горящая стрела и бензобак.
06. Стеклянная рама.
07. Рок и ярость.
08. Дикий Запад.
09. Сила пера.
10. Суперфонтан.
11. Динамитный депозит.
12. Высоковольтный побег.

Скриншоты



MediaInfo

General
Unique ID : 209648737160297143351236393891944018808 (0x9DB8E0C93207496B1C128B5AEAE13378)
Complete name : H:\Раздачи 3\Разрушители легенд s17 720p GeneralFilm\01 Разрушители легенд GeneralFilm.mkv
Format : Matroska
Format version : Version 2
File size : 1.29 GiB
Duration : 44 min 1 s
Overall bit rate mode : Constant
Overall bit rate : 4 197 kb/s
Writing application : Lavf54.63.104
Writing library : Lavf54.63.104
Video
ID : 1
Format : AVC
Format/Info : Advanced Video Codec
Format profile : High@L4.1
Format settings : CABAC / 3 Ref Frames
Format settings, CABAC : Yes
Format settings, ReFrames : 3 frames
Codec ID : V_MPEG4/ISO/AVC
Duration : 44 min 1 s
Bit rate mode : Constant
Bit rate : 4 000 kb/s
Width : 1 280 pixels
Height : 720 pixels
Display aspect ratio : 16:9
Frame rate mode : Constant
Frame rate : 50.000 FPS
Standard : PAL
Color space : YUV
Chroma subsampling : 4:2:0
Bit depth : 8 bits
Scan type : Progressive
Bits/(Pixel*Frame) : 0.087
Stream size : 1.21 GiB (93%)
Default : No
Forced : No
Color range : Limited
Color primaries : BT.709
Transfer characteristics : BT.709
Matrix coefficients : BT.709
Audio
ID : 2
Format : MPEG Audio
Format version : Version 1
Format profile : Layer 2
Codec ID : A_MPEG/L2
Codec ID/Hint : MP2
Duration : 44 min 1 s
Bit rate mode : Constant
Bit rate : 192 kb/s
Channel(s) : 2 channels
Sampling rate : 48.0 kHz
Compression mode : Lossy
Delay relative to video : 4 ms
Stream size : 60.5 MiB (5%)
Language : English
Default : Yes
Forced : No
[Profile] [PM]
Display posts:    
Reply to topic

Current time is: 18-Jun 08:52

All times are UTC + 3



You cannot post new topics in this forum
You cannot reply to topics in this forum
You cannot edit your posts in this forum
You cannot delete your posts in this forum
You cannot vote in polls in this forum
You cannot attach files in this forum
You cannot download files in this forum