Рубеж (Граница) / Frontier [3 сезон: 1-6 серии из 6] (2018) WEBRip 1080p | BaibaKo

Reply to topic
 
Author Message

Мухич ®

Gender: Male

Longevity: 5 months 2 days

Posts: 53

Post 28-Nov-2018 22:20

[Quote]

Рубеж (Граница) / Frontier
Год выпуска: 2018
Жанр: Приключения, драма, исторический
Выпущено: Канада, Take the Shot Productions
Режиссер: Брэд Пейтон, Джон Ватчер, Келли Макин
В ролях: Диана Бентли, Бриэнн Хилл, Джейсон Момоа, Джессика Мэттен, Пол Ивэн Уилсон, Майкл Патрик, Уильям Белло, Пол Фауте, Эван Джонигкейт, Кристиан МакКэй, Лайла Портер Фоллоус
О фильме: Сериал расскажет о жестокой и кровавой борьбе за богатство и власть в торговле пушниной на просторах Северной Америки в XVIII веке. Бизнес приходится вести в очень сложных условиях жестокого противостояния коренных племён и понаехавших на континент европейцев.

Качество: WEBRip 1080p
Видео: MPEG-4 AVC, ~ 6600 Кбит/с, 1920x1080
Аудио:1 Русский: AC3, 6 ch, 640 Кбит/с
Аудио:2 Английский: AC3, 6 ch, 640 Кбит/с
Продолжительность: 6 x ~ 00:43:00
Перевод: Любительский (многоголосый, закадровый) - (BaibaKo)
Субтитры: Русские, английские, испанские, французские, немецкие, итальянские, португальские, голландские, греческие
Без рекламы

Скриншоты

MediaInfo

Общее
Уникальный идентификатор : 308101213713729030901598664148697228518 (0xE7CA22A59935ABA133FD3DC62D9024E6)
Полное имя : D:\Рубеж. 3 сезон. 2018. BaibaKo (WEB-DL 1080p)\Frontier.s03e01. Путь вниз.mkv
Формат : Matroska
Версия формата : Version 4 / Version 2
Размер файла : 1,77 Гбайт
Продолжительность : 46 м. 25 с.
Режим общего битрейта : Переменный
Общий поток : 5456 Кбит/сек
Название фильма : The Low Road
Дата кодирования : UTC 2018-11-26 18:31:53
Программа кодирования : mkvmerge v25.0.0 ('Prog Noir') 64-bit
Библиотека кодирования : libebml v1.3.6 + libmatroska v1.4.9
Видео
Идентификатор : 1
Формат : AVC
Формат/Информация : Advanced Video Codec
Профиль формата : Main@L4
Настройки формата : CABAC / 3 Ref Frames
Параметр CABAC формата : Да
Параметр RefFrames формата : 3 кадра
Идентификатор кодека : V_MPEG4/ISO/AVC
Продолжительность : 46 м. 25 с.
Вид битрейта : Переменный
Битрейт : 4220 Кбит/сек
Максимальный битрейт : 6330 Кбит/сек
Ширина : 1920 пикселей
Высота : 1080 пикселей
Соотношение сторон : 16:9
Режим частоты кадров : Постоянный
Частота кадров : 23,976 (24000/1001) кадра/сек
Цветовое пространство : YUV
Субдискретизация насыщенности : 4:2:0
Битовая глубина : 8 бит
Тип развёртки : Прогрессивная
Бит/(Пиксели*Кадры) : 0.085
Размер потока : 1,32 Гбайт (75%)
Библиотека кодирования : x264 core 148 r2715 7e75228
Настройки программы : cabac=1 / ref=3 / deblock=1:0:0 / analyse=0x1:0x111 / me=umh / subme=10 / psy=1 / psy_rd=1.00:0.00 / mixed_ref=1 / me_range=24 / chroma_me=1 / trellis=2 / 8x8dct=0 / cqm=0 / deadzone=21,11 / fast_pskip=1 / chroma_qp_offset=-2 / threads=8 / lookahead_threads=1 / sliced_threads=0 / nr=0 / decimate=1 / interlaced=0 / bluray_compat=0 / stitchable=1 / constrained_intra=0 / bframes=2 / b_pyramid=0 / b_adapt=2 / b_bias=0 / direct=3 / weightb=1 / open_gop=0 / weightp=2 / keyint=48 / keyint_min=25 / scenecut=0 / intra_refresh=0 / rc_lookahead=48 / rc=2pass / mbtree=1 / bitrate=4220 / ratetol=1.0 / qcomp=0.50 / qpmin=6 / qpmax=51 / qpstep=4 / cplxblur=20.0 / qblur=0.5 / vbv_maxrate=6330 / vbv_bufsize=8440 / nal_hrd=vbr / filler=0 / ip_ratio=1.40 / aq=1:1.00
Язык : English
Default : Да
Forced : Нет
Аудио #1
Идентификатор : 2
Формат : AC-3
Формат/Информация : Audio Coding 3
Идентификатор кодека : A_AC3
Продолжительность : 46 м. 25 с.
Вид битрейта : Постоянный
Битрейт : 640 Кбит/сек
Каналы : 6 каналов
Расположение каналов : Front: L C R, Side: L R, LFE
Частота : 48,0 КГц
Частота кадров : 31,250 кадров/сек (1536 SPF)
Битовая глубина : 16 бит
Метод сжатия : С потерями
Размер потока : 213 Мбайт (12%)
Язык : Russian
ServiceKind/String : Complete Main
Default : Да
Forced : Нет
Аудио #2
Идентификатор : 3
Формат : AC-3
Формат/Информация : Audio Coding 3
Идентификатор кодека : A_AC3
Продолжительность : 46 м. 25 с.
Вид битрейта : Постоянный
Битрейт : 640 Кбит/сек
Каналы : 6 каналов
Расположение каналов : Front: L C R, Side: L R, LFE
Частота : 48,0 КГц
Частота кадров : 31,250 кадров/сек (1536 SPF)
Битовая глубина : 16 бит
Метод сжатия : С потерями
Размер потока : 213 Мбайт (12%)
Язык : English
ServiceKind/String : Complete Main
Default : Нет
Forced : Нет
Текст #1
Идентификатор : 4
Формат : UTF-8
Идентификатор кодека : S_TEXT/UTF8
Идентификатор кодека/Информация : UTF-8 Plain Text
Язык : Russian
Default : Нет
Forced : Нет
Текст #2
Идентификатор : 5
Формат : UTF-8
Идентификатор кодека : S_TEXT/UTF8
Идентификатор кодека/Информация : UTF-8 Plain Text
Заголовок : SDH
Язык : English
Default : Нет
Forced : Нет
Текст #3
Идентификатор : 6
Формат : UTF-8
Идентификатор кодека : S_TEXT/UTF8
Идентификатор кодека/Информация : UTF-8 Plain Text
Язык : Spanish
Default : Нет
Forced : Нет
Текст #4
Идентификатор : 7
Формат : UTF-8
Идентификатор кодека : S_TEXT/UTF8
Идентификатор кодека/Информация : UTF-8 Plain Text
Язык : French
Default : Нет
Forced : Нет
Текст #5
Идентификатор : 8
Формат : UTF-8
Идентификатор кодека : S_TEXT/UTF8
Идентификатор кодека/Информация : UTF-8 Plain Text
Язык : German
Default : Нет
Forced : Нет
Текст #6
Идентификатор : 9
Формат : UTF-8
Идентификатор кодека : S_TEXT/UTF8
Идентификатор кодека/Информация : UTF-8 Plain Text
Язык : Italian
Default : Нет
Forced : Нет
Текст #7
Идентификатор : 10
Формат : UTF-8
Идентификатор кодека : S_TEXT/UTF8
Идентификатор кодека/Информация : UTF-8 Plain Text
Язык : Portuguese
Default : Нет
Forced : Нет
Текст #8
Идентификатор : 11
Формат : UTF-8
Идентификатор кодека : S_TEXT/UTF8
Идентификатор кодека/Информация : UTF-8 Plain Text
Язык : Dutch
Default : Нет
Forced : Нет
Текст #9
Идентификатор : 12
Формат : UTF-8
Идентификатор кодека : S_TEXT/UTF8
Идентификатор кодека/Информация : UTF-8 Plain Text
Язык : Greek
Default : Нет
Forced : Нет
Автор релиза: Atla22
[Profile] [PM]
Display posts:    
Reply to topic

Current time is: 22-Apr 18:21

All times are UTC + 3



You cannot post new topics in this forum
You cannot reply to topics in this forum
You cannot edit your posts in this forum
You cannot delete your posts in this forum
You cannot vote in polls in this forum
You cannot attach files in this forum
You cannot download files in this forum