Пёс [4 сезон: 1-22 серии из 22] (2018) WEBRip от Files-x

Reply to topic
 
Author Message

bond74 ®

Gender: Male

Longevity: 11 months 5 days

Posts: 664

Post 29-Nov-2018 01:22

[Quote]

Пёс Год выпуска: 2018
Жанр: Детектив
Выпущено: Украина, PRO-TV
Режиссер: Николай Каптан, Игорь Забара
В ролях: Андрей Саминин, Никита Панфилов, Михаил Жонин, Ольга Олексий, Денис Роднянский, Светлана Зельбет, Ольга Морозова, Тарас Мельничук
О фильме: Приключения Макса и его верного друга по кличке Пёс продолжаются! Они снова окажутся в центре преступных перепетий, и им в очередной раз придется показать, на что они способны. Макс продолжает работать вместе с бывшей женой Леной и бывшим лучшим другом Алексеем. Отношения Макса и Лены неопределенные, и это нередко нервирует ревнивца Леонидова. Гнездилов продолжает доказывать, что он самый лучший сыщик и знает все лучше остальных: выдвигая свои теории по каждому делу и следуя только своей логике в расследованиях, он по-прежнему попадает в нелепые и смешные ситуации.
Качество: WEBRip
Видео: XviD, ~ 1600 Кбит/с, 720x400, 25 кадр/с
Аудио: AC3, 2 ch, 192 Кбит/с
Продолжительность: 22 x ~ 00:52:13
Перевод: Не требуется
Субтитры: нет

Скриншоты

MediaInfo

General
General
Complete name : H:\fiiles x\Pios.3.2018,WEB-DLRip.Files-x\01.Pios.3.2018,WEB-DLRip.Files-x.avi
Format : AVI
Format/Info : Audio Video Interleave
File size : 672 MiB
Duration : 52mn 13s
Overall bit rate : 1 798 Kbps
Writing application : VirtualDubMod 1.5.10.3 | www.virtualdub-fr.org || (build 2550/release)
Writing library : VirtualDubMod build 2550/release
Video
ID : 0
Format : MPEG-4 Visual
Format profile : Advanced Simple@L5
Format settings, BVOP : 1
Format settings, QPel : Yes
Format settings, GMC : No warppoints
Format settings, Matrix : Custom
Codec ID : XVID
Codec ID/Hint : XviD
Duration : 52mn 13s
Bit rate : 1 597 Kbps
Width : 720 pixels
Height : 400 pixels
Display aspect ratio : 16:9
Frame rate : 25.000 fps
Color space : YUV
Chroma subsampling : 4:2:0
Bit depth : 8 bits
Scan type : Progressive
Compression mode : Lossy
Bits/(Pixel*Frame) : 0.222
Stream size : 596 MiB (89%)
Writing library : XviD 73
Audio
ID : 1
Format : AC-3
Format/Info : Audio Coding 3
Mode extension : CM (complete main)
Codec ID : 2000
Duration : 52mn 13s
Bit rate mode : Constant
Bit rate : 192 Kbps
Channel(s) : 2 channels
Channel positions : Front: L R
Sampling rate : 48.0 KHz
Bit depth : 16 bits
Compression mode : Lossy
Stream size : 71.7 MiB (11%)
Alignment : Split accross interleaves
Interleave, duration : 40 ms (1.00 video frame)
Interleave, preload duration : 500 ms
Релиз от:


Last edited by bond74 on 2019-01-01 23:00; edited 8 times in total
[Profile] [PM]

volkov-57

Gender: Male

Longevity: 10 months 16 days

Posts: 4

Post 14-Dec-2018 14:46 (after 15 days)

[Quote]

Подожду [Золото] Пёс [4 сезон 1-20 серии из 20] (2018) WEBRip от Files-x
[Profile] [PM]
Display posts:    
Reply to topic

Current time is: 20-Oct 18:40

All times are UTC + 3



You cannot post new topics in this forum
You cannot reply to topics in this forum
You cannot edit your posts in this forum
You cannot delete your posts in this forum
You cannot vote in polls in this forum
You cannot attach files in this forum
You cannot download files in this forum