Погоня за прошлым (Капитан Журавлёва) [1-16 серии из 16] (2015) HDTVRip от Files-x

Reply to topic
 
Author Message

papa1951deda ®

Gender: Male

Longevity: 6 months 3 days

Posts: 236

Location: Казахстан

Post 29-Nov-2018 07:13

[Quote]

Погоня за прошлым (Капитан Журавлёва) Год выпуска: 2015
Жанр:Детектив, криминал
Выпущено: "Форвард-фильм", "Панорама"
Режиссёр: Алан Дзоциев
В ролях: Мария Синяева, Константин Стрельников, Вячеслав Малежик, Антон Юрьев, Юрий Батурин, Андрей Некрасов (III), Михаил Гришин, Андрей Смелов, Сергей Уманов, Владимир Постников, Юрий Ицков, Александр Марушев, Наталья Мызникова, Дарья Буравцова, Игорь Власов (II), Лариса Логинова, Алексей Осипов (IV), Елена Забродина
О фильме: Оказавшись жертвой преступления, молодой медик Варвара Журавлёва решает круто изменить свою жизнь и поступает на службу в полицию. На новом месте работы она быстро добивается внушительных успехов благодаря аналитическому складу ума и сильному характеру. Занимаясь расследованием убийства молодой девушки, Журавлёва убеждается в том, что это преступление является только частью целой криминальной цепочки, в которую вовлечены самые разные, в том числе и властные структуры. Все возможные свидетели преступления отправляются на тот свет раньше, чем Журавлёва успевает получить от них показания. Кому-то очень не нравится рвение капитана Журавлёвой, начинаются угрозы ей и её близким. В ходе расследования Журавлёва пересекается с человеком, когда-то ставшим причиной её страданий и унижений. Мужественно встретив старую угрозу лицом к лицу, Журавлёва выясняет имя этого человека и начинает неотступно идти по его следу.
Качество: HDTVRip
Видео: XviD, ~ 1600 Кбит/с, 720x400, 25 кадр/с
Аудио: AC3, 2 ch, 192 Кбит/с
Продолжительность: 16 x ~ 00:45:00
Перевод: Не требуется
Субтитры: Нет

Скриншоты

MediaInfo

General
Complete name : D:\моё видио\Pogonya za proshlym.2016.HDTVRip.Files-x\01.Pogonya za proshlym.2016.HDTVRip.Files-x.avi
Format : AVI
Format/Info : Audio Video Interleave
File size : 549 MiB
Duration : 42mn 38s
Overall bit rate : 1 801 Kbps
Writing application : VirtualDubMod 1.5.10.3 | www.virtualdub-fr.org || (build 2550/release)
Writing library : VirtualDubMod build 2550/release
Video
ID : 0
Format : MPEG-4 Visual
Format profile : Advanced Simple@L5
Format settings, BVOP : 1
Format settings, QPel : No
Format settings, GMC : No warppoints
Format settings, Matrix : Custom
Codec ID : XVID
Codec ID/Hint : XviD
Duration : 42mn 38s
Bit rate : 1 600 Kbps
Width : 720 pixels
Height : 400 pixels
Display aspect ratio : 16:9
Frame rate : 25.000 fps
Color space : YUV
Chroma subsampling : 4:2:0
Bit depth : 8 bits
Scan type : Progressive
Compression mode : Lossy
Bits/(Pixel*Frame) : 0.222
Stream size : 488 MiB (89%)
Writing library : XviD 73
Audio
ID : 1
Format : AC-3
Format/Info : Audio Coding 3
Mode extension : CM (complete main)
Format settings, Endianness : Big
Codec ID : 2000
Duration : 42mn 38s
Bit rate mode : Constant
Bit rate : 192 Kbps
Channel(s) : 2 channels
Channel positions : Front: L R
Sampling rate : 48.0 KHz
Bit depth : 16 bits
Compression mode : Lossy
Stream size : 58.6 MiB (11%)
Alignment : Split accross interleaves
Interleave, duration : 40 ms (1.00 video frame)
Interleave, preload duration : 500 ms
Релиз от:
[Profile] [PM]
Display posts:    
Reply to topic

Current time is: 24-May 13:01

All times are UTC + 3



You cannot post new topics in this forum
You cannot reply to topics in this forum
You cannot edit your posts in this forum
You cannot delete your posts in this forum
You cannot vote in polls in this forum
You cannot attach files in this forum
You cannot download files in this forum