Живое / Life (2017) BDRip AVC | Лицензия

Reply to topic
 
Author Message

Monk ®

Gender: Male

Longevity: 9 months 11 days

Posts: 7980

Location: Казань

Post 29-Nov-2018 08:31

[Quote]

Живое / Life Год выпуска: 2017
Жанр: Ужасы, фантастика, триллер
Выпущено: США, Columbia Pictures, Skydance Productions, Sony Pictures Entertainment (SPE)
Режиссер: Даниэль Эспиноса
В ролях: Джейк Джилленхол, Ребекка Фергюсон (II), Райан Рейнольдс, Ольга Дыховичная, Эрион Бакаре, Хироюки Санада, Наоко Мори, Александр Нгуйен, Камиль Уоррен-Тейлор, Хиу Ун-Син
О фильме: Международная космическая станция. Наши дни. С Марса прилетает модуль с образцами пород, куда совершенно случайно затесалась тамошняя инфузория-тапочка в свежезамороженном состоянии. Команда исследователей с упоением начинает издеваться над чужеродным организмом: помещает его в кислотную среду, кормит денатуратом с ложечки, бьет электрическим шокером и поджаривает лазерным резаком. В результате перенесенных потрясений инопланетный гость превращается в агрессивно настроенного пожирателя мозгов, выбирается из инкубатора и устраивает экипажу станции веселую жизнь.

Качество: BDRip AVC
Видео: MPEG-4 AVC, 1489 Кбит/с, 1024x428
Аудио: Русский (AC3, 6 ch, 448 Кбит/с), украинский (AC3, 2 сh, 192 Кбит/с), английский (AC3, 6 ch, 448 Кбит/с)
Продолжительность: 01:43:16
Перевод: Дублированный [Лицензия], авторский [Есарев]
Субтитры: Русские, английские, украинские

Скриншоты



MediaInfo

Общее
Уникальный идентификатор : 202513653025981136236755930329824076653 (0x985AB5FA54BE62018103FA19B24BA36D)
Полное имя : D:\Life.2017.BDRip(AVC).OlLanDGroup.mkv
Формат : Matroska
Версия формата : Version 2
Размер файла : 1,94 Гбайт
Продолжительность : 1 ч. 43 м.
Общий поток : 2674 Кбит/сек
Название фильма : Life.2017 - TorpedoUK
Дата кодирования : UTC 2017-06-10 18:31:32
Программа кодирования : mkvmerge v7.8.0 ('River Man') 32bit built on Apr 3 2015 12:11:22
Библиотека кодирования : libebml v1.3.1 + libmatroska v1.4.2
Видео
Идентификатор : 1
Формат : AVC
Формат/Информация : Advanced Video Codec
Профиль формата : High@L4.1
Параметр CABAC формата : Да
Параметр ReFrames формата : 10 кадров
Идентификатор кодека : V_MPEG4/ISO/AVC
Продолжительность : 1 ч. 43 м.
Битрейт : 1596 Кбит/сек
Номинальный битрейт : 1489 Кбит/сек
Ширина : 1024 пикселя
Высота : 428 пикселей
Соотношение сторон : 2,40:1
Режим частоты кадров : Постоянный
Частота кадров : 23,976 (24000/1001) кадра/сек
Цветовое пространство : YUV
Субдискретизация насыщенности : 4:2:0
Битовая глубина : 8 бит
Тип развёртки : Прогрессивная
Бит/(Пиксели*Кадры) : 0.152
Размер потока : 1,16 Гбайт (60%)
Библиотека кодирования : x264 core 146 r2538 121396c
Настройки программы : cabac=1 / ref=10 / deblock=1:-3:-3 / analyse=0x3:0x133 / me=umh / subme=11 / psy=1 / psy_rd=1.00:0.07 / mixed_ref=1 / me_range=48 / chroma_me=1 / trellis=2 / 8x8dct=1 / cqm=0 / deadzone=21,11 / fast_pskip=0 / chroma_qp_offset=-3 / threads=6 / lookahead_threads=1 / sliced_threads=0 / nr=0 / decimate=0 / interlaced=0 / bluray_compat=0 / constrained_intra=0 / bframes=10 / b_pyramid=2 / b_adapt=2 / b_bias=0 / direct=3 / weightb=1 / open_gop=0 / weightp=2 / keyint=240 / keyint_min=23 / scenecut=40 / intra_refresh=0 / rc_lookahead=40 / rc=2pass / mbtree=0 / bitrate=1489 / ratetol=1.0 / qcomp=0.60 / qpmin=0 / qpmax=69 / qpstep=4 / cplxblur=20.0 / qblur=0.5 / vbv_maxrate=50000 / vbv_bufsize=62500 / nal_hrd=none / filler=0 / ip_ratio=1.40 / pb_ratio=1.30 / aq=1:1.00
Язык : English
Default : Да
Forced : Нет
Аудио #1
Идентификатор : 2
Формат : AC-3
Формат/Информация : Audio Coding 3
Расширение режима : CM (complete main)
Параметр Endianness формата : Big
Идентификатор кодека : A_AC3
Продолжительность : 1 ч. 43 м.
Вид битрейта : Постоянный
Битрейт : 384 Кбит/сек
Каналы : 6 каналов
Расположение каналов : Front: L C R, Side: L R, LFE
Частота : 48,0 КГц
Частота кадров : 31,250 кадров/сек (1536 spf)
Битовая глубина : 16 бит
Метод сжатия : С потерями
Задержка видео : 7 мс.
Размер потока : 286 Мбайт (14%)
Заголовок : [DUB] DD 5.1 @ 384 kbps (iTunes)
Язык : Russian
Default : Да
Forced : Нет
Аудио #2
Идентификатор : 3
Формат : AC-3
Формат/Информация : Audio Coding 3
Расширение режима : CM (complete main)
Параметр Endianness формата : Big
Идентификатор кодека : A_AC3
Продолжительность : 1 ч. 43 м.
Вид битрейта : Постоянный
Битрейт : 192 Кбит/сек
Каналы : 2 канала
Расположение каналов : Front: L R
Частота : 48,0 КГц
Частота кадров : 31,250 кадров/сек (1536 spf)
Битовая глубина : 16 бит
Метод сжатия : С потерями
Задержка видео : 7 мс.
Размер потока : 143 Мбайт (7%)
Заголовок : [DUB] DD 2.0 @ 192 kbps (iTunes)
Язык : Ukrainian
Default : Нет
Forced : Нет
Аудио #3
Идентификатор : 4
Формат : AC-3
Формат/Информация : Audio Coding 3
Расширение режима : CM (complete main)
Параметр Endianness формата : Big
Идентификатор кодека : A_AC3
Продолжительность : 1 ч. 43 м.
Вид битрейта : Постоянный
Битрейт : 448 Кбит/сек
Каналы : 6 каналов
Расположение каналов : Front: L C R, Side: L R, LFE
Частота : 48,0 КГц
Частота кадров : 31,250 кадров/сек (1536 spf)
Битовая глубина : 16 бит
Метод сжатия : С потерями
Размер потока : 333 Мбайт (17%)
Заголовок : Original
Язык : English
Default : Нет
Forced : Нет
Текст #1
Идентификатор : 5
Формат : UTF-8
Идентификатор кодека : S_TEXT/UTF8
Идентификатор кодека/Информация : UTF-8 Plain Text
Заголовок : Forced
Язык : Russian
Default : Да
Forced : Нет
Текст #2
Идентификатор : 6
Формат : UTF-8
Идентификатор кодека : S_TEXT/UTF8
Идентификатор кодека/Информация : UTF-8 Plain Text
Заголовок : Full
Язык : Russian
Default : Нет
Forced : Нет
Текст #3
Идентификатор : 7
Формат : UTF-8
Идентификатор кодека : S_TEXT/UTF8
Идентификатор кодека/Информация : UTF-8 Plain Text
Заголовок : Full
Язык : Ukrainian
Default : Нет
Forced : Нет
Текст #4
Идентификатор : 8
Формат : UTF-8
Идентификатор кодека : S_TEXT/UTF8
Идентификатор кодека/Информация : UTF-8 Plain Text
Заголовок : Full
Язык : English
Default : Нет
Forced : Нет
Текст #5
Идентификатор : 9
Формат : UTF-8
Идентификатор кодека : S_TEXT/UTF8
Идентификатор кодека/Информация : UTF-8 Plain Text
Заголовок : Full (SDH)
Язык : English
Default : Нет
Forced : Нет
Меню
00:00:00.000 : en:Chapter 1
00:09:32.863 : en:Chapter 2
00:13:13.083 : en:Chapter 3
00:15:36.894 : en:Chapter 4
00:19:35.340 : en:Chapter 5
00:24:57.454 : en:Chapter 6
00:34:36.991 : en:Chapter 7
00:40:45.109 : en:Chapter 8
00:43:59.303 : en:Chapter 9
00:52:21.805 : en:Chapter 10
00:58:33.927 : en:Chapter 11
01:06:37.785 : en:Chapter 12
01:11:43.257 : en:Chapter 13
01:17:50.874 : en:Chapter 14
01:22:39.621 : en:Chapter 15
01:28:34.309 : en:Chapter 16
[Profile] [PM]
Display posts:    
Reply to topic

Current time is: 25-Aug 15:24

All times are UTC + 3



You cannot post new topics in this forum
You cannot reply to topics in this forum
You cannot edit your posts in this forum
You cannot delete your posts in this forum
You cannot vote in polls in this forum
You cannot attach files in this forum
You cannot download files in this forum