Искренне ваша, Бренда / Sincerely, Brenda (2018) WEB-DL 1080p

Reply to topic
 
Author Message

Monk ®

Gender: Male

Longevity: 9 months 10 days

Posts: 7980

Location: Казань

Post 22-Jul-2019 10:21

[Quote]

Искренне ваша, Бренда / Sincerely, Brenda Год выпуска: 2018
Жанр: Драма
Выпущено: США, CTC Media Group, Ray Media Creative
Режиссер: Кеннет Нельсон мл.
В ролях: ТаНия Александр, Квентин Браун, Тери Д. Браун, Иоланда Дональд, Мишель Дункан, Эван Франклин, Тиффани Хилл, Леонид Джонсон, Бриана Эль Джонс
О фильме: После внезапной трагедии, произошедшей с женой, бывший алкоголик пытается помириться со своими двумя сыновьями, с которыми не общался уже много лет, но встреча раскрывает секреты, которые могут уничтожить их семью навсегда.
Качество: WEB-DL 1080p
Видео: MPEG-4 AVC, 4884 Кбит/с, 1920x1080
Аудио: Русский (AC3, 2 ch, 192 Кбит/с), английский (Е-AC3, 2 ch, 224 Кбит/с)
Продолжительность: 01:28:24
Перевод: Любительский двухголосый [HiWayGrope]
Субтитры: Английские

Скриншоты



MediaInfo

General
Unique ID : 277781230278031785327520360214493862736 (0xD0FAB80C541BF8620EE9994814831B50)
Complete name : G:\Sincerely.Brenda.2018.WEB-DL.1080p.mkv
Format : Matroska
Format version : Version 4 / Version 2
File size : 3.27 GiB
Duration : 1 h 28 min
Overall bit rate : 5 302 kb/s
Encoded date : UTC 2019-07-16 09:01:13
Writing application : mkvmerge v20.0.0 ('I Am The Sun') 64-bit
Writing library : libebml v1.3.5 + libmatroska v1.4.8
Video
ID : 1
Format : AVC
Format/Info : Advanced Video Codec
Format profile : High@L4
Format settings : CABAC / 4 Ref Frames
Format settings, CABAC : Yes
Format settings, RefFrames : 4 frames
Codec ID : V_MPEG4/ISO/AVC
Duration : 1 h 28 min
Bit rate : 4 884 kb/s
Width : 1 920 pixels
Height : 1 080 pixels
Display aspect ratio : 16:9
Frame rate mode : Constant
Frame rate : 23.976 (24000/1001) FPS
Color space : YUV
Chroma subsampling : 4:2:0
Bit depth : 8 bits
Scan type : Progressive
Bits/(Pixel*Frame) : 0.098
Stream size : 3.02 GiB (92%)
Language : English
Default : Yes
Forced : No
Color range : Limited
Color primaries : BT.709
Transfer characteristics : BT.709
Matrix coefficients : BT.709
Audio #1
ID : 2
Format : AC-3
Format/Info : Audio Coding 3
Codec ID : A_AC3
Duration : 1 h 28 min
Bit rate mode : Constant
Bit rate : 192 kb/s
Channel(s) : 2 channels
Channel positions : Front: L R
Sampling rate : 48.0 kHz
Frame rate : 31.250 FPS (1536 SPF)
Bit depth : 16 bits
Compression mode : Lossy
Stream size : 121 MiB (4%)
Title : DVO HiWayGrope
Language : Russian
Service kind : Complete Main
Default : Yes
Forced : No
Audio #2
ID : 3
Format : E-AC-3
Format/Info : Enhanced Audio Coding 3
Codec ID : A_EAC3
Duration : 1 h 28 min
Bit rate mode : Constant
Bit rate : 224 kb/s
Channel(s) : 2 channels
Channel positions : Front: L R
Sampling rate : 48.0 kHz
Frame rate : 187.500 FPS (256 SPF)
Compression mode : Lossy
Stream size : 142 MiB (4%)
Language : English
Service kind : Complete Main
Default : No
Forced : No
Text
ID : 4
Format : UTF-8
Codec ID : S_TEXT/UTF8
Codec ID/Info : UTF-8 Plain Text
Duration : 1 h 22 min
Bit rate : 53 b/s
Count of elements : 1082
Stream size : 32.1 KiB (0%)
Language : English
Default : No
Forced : No
[Profile] [PM]
Display posts:    
Reply to topic

Current time is: 24-Aug 15:41

All times are UTC + 3



You cannot post new topics in this forum
You cannot reply to topics in this forum
You cannot edit your posts in this forum
You cannot delete your posts in this forum
You cannot vote in polls in this forum
You cannot attach files in this forum
You cannot download files in this forum