КВН-2019. Премьер лига [1/8 финала. 1/4 финала. Игра первая, Игра вторая] (2019) WEB-DL 1080p от Files-x

Reply to topic
 
Author Message

bond74 ®

Gender: Male

Longevity: 9 months 9 days

Posts: 582

Post 22-Jul-2019 16:54

[Quote]

КВН-2019. Премьер лига Год выпуска: 2019
Жанр: Юмор
Выпущено:Россия, АМИК, Первый канал
О фильме: Что такое КВН - знают, без сомнения, все. В КВН играют во всем мире, это прежде всего молодежная игра. Постоянные конкурсные задания - "Визитная карточка", "Разминка", "Конкурс капитанов", "Музыкальный конкурс", "Домашнее задание". Игру команд оценивает профессиональное жюри - люди, у которых с чувством юмора все в порядке, многие из них раньше сами играли в КВН. Среди членов жюри были Константин Эрнст, Леонид Парфенов, Юлий Гусман, Леонид Ярмольник, Валдис Пельш, Сергей Шолохов, Геннадий Хазанов и другие. Кроме самих игр проводятся ежегодные встречи: фестиваль команд КВН (с 1990 г., семь раз фестиваль проходил в г.Сочи), музыкальный фестиваль КВН, летний кубок КВН, международные товарищеские игры в КВН. Сборная КВН играет со сборными других стран. Уже состоялись игры между сборной КВН и сборными Америки, Австралии, Израиля... Игра в КВН для многих становится профессией, а многие благодаря игре связывают жизнь с искусством. Из КВН "вышли": Леонид Якубович, Михаил Марфин, Татьяна Лазарева, Олег Филимонов, Юлий Гусман и многие другие.
Качество: WEB-DL 1080p
Видео: MPEG-4 AVC, 4492 Кбит/с, 1920x1080, 25 кадр/с
Аудио: AC3, 2 ch, 192 Кбит/с
Продолжительность: 5 x ~ 01:11:09
Перевод: Не требуется
Субтитры: нет

Скриншоты

MediaInfo

General
Unique ID : 215760689363784564397590437409407966542 (0xA251FF4B8FDED6C7873671EB68711D4E)
Complete name : E:\00000000000000\KVN. Премьер лига (2019) . WEB-DL 1080p. Files-x\01. КВН 2019 Премьер лига Первая 1_8 (21.07.2019). WEB-DL 1080p. Files-x.mkv
Format : Matroska
File size : 2.33 GiB
Duration : 1h 9mn
Overall bit rate : 4 779 Kbps
Encoded date : UTC 2019-07-21 19:32:28
Writing application : mkvmerge v7.8.0 ('River Man') 32bit built on Apr 3 2015 12:11:22
Writing library : libebml v1.3.1 + libmatroska v1.4.2
Video
ID : 1
Format : AVC
Format/Info : Advanced Video Codec
Format profile : High@L4.0
Format settings, CABAC : Yes
Format settings, ReFrames : 3 frames
Codec ID : V_MPEG4/ISO/AVC
Duration : 1h 9mn
Bit rate : 4 492 Kbps
Width : 1 920 pixels
Height : 1 080 pixels
Display aspect ratio : 16:9
Frame rate mode : Variable
Frame rate : 25.000 fps
Color space : YUV
Chroma subsampling : 4:2:0
Bit depth : 8 bits
Scan type : Progressive
Bits/(Pixel*Frame) : 0.087
Stream size : 2.19 GiB (94%)
Color primaries : BT.709-5, BT.1361, IEC 61966-2-4, SMPTE RP177
Transfer characteristics : BT.709-5, BT.1361
Matrix coefficients : BT.709-5, BT.1361, IEC 61966-2-4 709, SMPTE RP177
Audio
ID : 2
Format : AC-3
Format/Info : Audio Coding 3
Mode extension : CM (complete main)
Codec ID : A_AC3
Duration : 1h 9mn
Bit rate mode : Constant
Bit rate : 192 Kbps
Channel(s) : 2 channels
Channel positions : Front: L R
Sampling rate : 44.1 KHz
Bit depth : 16 bits
Compression mode : Lossy
Delay relative to video : 9ms
Stream size : 95.9 MiB (4%)
Релиз от:
[Profile] [PM]
Display posts:    
Reply to topic

Current time is: 24-Aug 15:42

All times are UTC + 3



You cannot post new topics in this forum
You cannot reply to topics in this forum
You cannot edit your posts in this forum
You cannot delete your posts in this forum
You cannot vote in polls in this forum
You cannot attach files in this forum
You cannot download files in this forum