Зама / Zama (2017) HDRip AVC

Reply to topic
 
Author Message

Monk ®

Gender: Male

Longevity: 9 months 5 days

Posts: 7884

Location: Казань

Post 29-Nov-2018 08:42

[Quote]

Зама / Zama Год выпуска: 2017
Жанр: Драма
Выпущено: Аргентина, Бразилия, Испания, Доминикана, Франция, Нидерланды, Мексика, Швейцария, США, Португалия, Ливан, Bananeira Filmes, Canana Films, CNC, El Deseo S.A.
Режиссер: Лукресия Мартель
В ролях: Даниэль Хименес Качо, Лола Дуэньяс, Матеус Наштергаэли, Хуан Минухин, Науэль Кано, Мариана Нюнс, Дэниэл Веронезе, Карлос Дефео, Рафаэль Спрегельбурд, Хорхе Роман
О фильме: Дон Диего де Зама — важный чиновник на службе испанского короля. Он коротает дни в столице Парагвая. Снедаемый гордостью, похотью, мелкими придирками и паранойей, дон Диего планирует свой перевод в Буэнос-Айрес. Только там, как ему кажется, прекратится его бессмысленное существование.

Качество: HDRip AVC
Видео: MPEG-4 AVC, 1677 Кбит/с, 1152x640
Аудио: AC3, 2 ch, 192 Кбит/с
Продолжительность: 01:54:53
Перевод: Любительский одноголосый [visanti-vasaer]

Скриншоты


MediaInfo

Формат : Matroska
Версия формата : Version 2
Размер файла : 1,50 Гбайт
Продолжительность : 1 ч. 55 м.
Общий поток : 1866 Кбит/сек
Дата кодирования : UTC 2018-07-25 14:37:13
Программа кодирования : mkvmerge v6.9.1 ('Blue Panther') 32bit built on Apr 18 2014 18:15:44
Библиотека кодирования : libebml v1.3.0 + libmatroska v1.4.1
Видео
Идентификатор : 1
Формат : AVC
Формат/Информация : Advanced Video Codec
Профиль формата : High@L3.2
Настройки формата : CABAC / 7 Ref Frames
Параметр CABAC формата : Да
Параметр RefFrames формата : 7 кадров
Идентификатор кодека : V_MPEG4/ISO/AVC
Продолжительность : 1 ч. 55 м.
Битрейт : 1677 Кбит/сек
Ширина : 1152 пикселя
Высота : 640 пикселей
Соотношение сторон : 16:9
Режим частоты кадров : Постоянный
Частота кадров : 24,000 кадра/сек
Цветовое пространство : YUV
Субдискретизация насыщенности : 4:2:0
Битовая глубина : 8 бит
Тип развёртки : Прогрессивная
Бит/(Пиксели*Кадры) : 0.095
Размер потока : 1,32 Гбайт (88%)
Библиотека кодирования : x264 core 152 r2851 ba24899
Настройки программы : cabac=1 / ref=7 / deblock=1:0:0 / analyse=0x3:0x113 / me=umh / subme=9 / psy=1 / psy_rd=1.00:0.00 / mixed_ref=1 / me_range=27 / chroma_me=1 / trellis=1 / 8x8dct=1 / cqm=0 / deadzone=21,11 / fast_pskip=1 / chroma_qp_offset=-2 / threads=1 / lookahead_threads=1 / sliced_threads=0 / nr=0 / decimate=1 / interlaced=0 / bluray_compat=0 / constrained_intra=0 / bframes=7 / b_pyramid=2 / b_adapt=1 / b_bias=0 / direct=1 / weightb=1 / open_gop=0 / weightp=2 / keyint=240 / keyint_min=24 / scenecut=40 / intra_refresh=0 / rc_lookahead=40 / rc=2pass / mbtree=1 / bitrate=1677 / ratetol=1.0 / qcomp=0.60 / qpmin=0 / qpmax=69 / qpstep=4 / cplxblur=20.0 / qblur=0.5 / ip_ratio=1.40 / aq=1:1.00
Default : Да
Forced : Нет
Statistics Tags Issue : mkvmerge v19.0.0 ('Brave Captain') 32-bit 2018-07-23 04:00:50 / mkvmerge v6.9.1 ('Blue Panther') 32bit built on Apr 18 2014 18:15:44 2018-07-25 14:37:13
FromStats_BitRate : 1676369
FromStats_Duration : 01:54:53.417000000
FromStats_FrameCount : 165442
FromStats_StreamSize : 1444489207
Аудио
Идентификатор : 2
Формат : AC-3
Формат/Информация : Audio Coding 3
Идентификатор кодека : A_AC3
Продолжительность : 1 ч. 55 м.
Вид битрейта : Постоянный
Битрейт : 192 Кбит/сек
Каналы : 2 канала
Расположение каналов : Front: L R
Частота : 48,0 КГц
Частота кадров : 31,250 кадров/сек (1536 SPF)
Битовая глубина : 16 бит
Метод сжатия : С потерями
Размер потока : 158 Мбайт (10%)
Язык : Russian
ServiceKind/String : Complete Main
Default : Да
Forced : Нет
[Profile] [PM]
Display posts:    
Reply to topic

Current time is: 19-Aug 20:26

All times are UTC + 3



You cannot post new topics in this forum
You cannot reply to topics in this forum
You cannot edit your posts in this forum
You cannot delete your posts in this forum
You cannot vote in polls in this forum
You cannot attach files in this forum
You cannot download files in this forum