Смерть по прибытии / Dead on Arrival (2017) WEB-DLRip AVC

Reply to topic
 
Author Message

Monk ®

Gender: Male

Longevity: 5 months 8 days

Posts: 5440

Location: Казань

Post 29-Nov-2018 08:55

[Quote]

Смерть по прибытии / Dead on Arrival Год выпуска: 2017
Жанр: Триллер
Выпущено: США, Boatyard Productions
Режиссер: Стивен Сефер
В ролях: Криста Б. Аллен, Скотти Томпсон, Д.Б. Суини, Лилло Бранкато, Крис Малки, Билли Слотер, Лаура Флэннери, Билли Флинн, Мария О'Брайэн, Мэттью Полкамп
О фильме: Герой этой истории, волей своей работы, должен отправится в небольшой городок, с целью самой обычной командировки. По прибытию он будет должен подписать выгодный контракт с возможными партнерами, что заинтересованны в поставках новой вакцины. Вот только поездка будет далека от обычных трудовых будней героя. Ведь он окажется в довольно странной ситуации. Город, в который он должен прибыть, далек от понимания покоя. Пускай он небольшой, но его отрезанность от окружающего мира, в корне изменила облик существования там людей. Это место, буквально погрязло во множестве бандитских разборок и постоянных мелких войн за сферы влияния. И конечно же, местные полицейские, смотрят на это дело с малой долей заинтересованности. Как собственно делают и политики, что судя по всему, напрямую замешаны в преступные дела. И даже будущие партнеры героя, оказываются втянутыми в темные делишки. И именно по этой причине, самый обычный работник фирмы, вынужденно оказывается в самом центре всех этих проблем. Но выбора нет, он обязан закрыть сделку и выйти из данной ситуации победителем. Только судя по всему, будет его путь очень трудным. Ведь многие захотят помешать герою ввиду личной выгоды и методы их будут далеки от нормальных.

Качество: WEB-DLRip AVC
Видео: MPEG-4 AVC, 1784 Кбит/с, 1024x428
Аудио: Русский (AC3, 2 ch, 192 Кбит/с), английский (AC3, 6 ch, 384 Кбит/с)
Продолжительность: 01:37:10
Перевод: Профессиональный многоголосый
Субтитры: Английские

Скриншоты



MediaInfo

Общее
Уникальный идентификатор : 132633618488218795179763670003635502577 (0x63C84E457E616640FAF4ECD8BC1CBDF1)
Полное имя : F:\OlLanDGroup\Dead.On.Arrival.2017.WEB-DLRip(AVC).OlLanDGroup.mkv
Формат : Matroska
Версия формата : Version 4 / Version 2
Размер файла : 1,60 Гбайт
Продолжительность : 1 ч. 37 м.
Общий поток : 2360 Кбит/сек
Название фильма : Dead on Arrival (2017) #TorpedoUK#
Дата кодирования : UTC 2018-11-28 12:28:53
Программа кодирования : mkvmerge v25.0.0 ('Prog Noir') 64-bit
Библиотека кодирования : libebml v1.3.6 + libmatroska v1.4.9
Видео
Идентификатор : 1
Формат : AVC
Формат/Информация : Advanced Video Codec
Профиль формата : High@L4.1
Параметр CABAC формата : Да
Параметр ReFrames формата : 10 кадров
Идентификатор кодека : V_MPEG4/ISO/AVC
Продолжительность : 1 ч. 37 м.
Битрейт : 1784 Кбит/сек
Ширина : 1024 пикселя
Высота : 428 пикселей
Соотношение сторон : 2,40:1
Режим частоты кадров : Постоянный
Частота кадров : 23,976 (24000/1001) кадра/сек
Цветовое пространство : YUV
Субдискретизация насыщенности : 4:2:0
Битовая глубина : 8 бит
Тип развёртки : Прогрессивная
Бит/(Пиксели*Кадры) : 0.170
Размер потока : 1,21 Гбайт (76%)
Библиотека кодирования : x264 core 146 r2538 121396c
Настройки программы : cabac=1 / ref=10 / deblock=1:-2:-3 / analyse=0x3:0x113 / me=umh / subme=10 / psy=1 / psy_rd=0.95:0.07 / mixed_ref=1 / me_range=48 / chroma_me=1 / trellis=2 / 8x8dct=1 / cqm=0 / deadzone=21,11 / fast_pskip=1 / chroma_qp_offset=-3 / threads=6 / lookahead_threads=1 / sliced_threads=0 / nr=0 / decimate=1 / interlaced=0 / bluray_compat=0 / constrained_intra=0 / bframes=11 / b_pyramid=2 / b_adapt=2 / b_bias=0 / direct=3 / weightb=1 / open_gop=0 / weightp=2 / keyint=240 / keyint_min=23 / scenecut=40 / intra_refresh=0 / rc_lookahead=40 / rc=2pass / mbtree=0 / bitrate=1784 / ratetol=1.0 / qcomp=0.60 / qpmin=0 / qpmax=69 / qpstep=4 / cplxblur=20.0 / qblur=0.5 / vbv_maxrate=50000 / vbv_bufsize=62500 / nal_hrd=none / filler=0 / ip_ratio=1.40 / pb_ratio=1.30 / aq=1:1.00
Язык : English
Default : Да
Forced : Нет
Аудио #1
Идентификатор : 2
Формат : AC-3
Формат/Информация : Audio Coding 3
Расширение режима : CM (complete main)
Параметр Endianness формата : Big
Идентификатор кодека : A_AC3
Продолжительность : 1 ч. 37 м.
Вид битрейта : Постоянный
Битрейт : 192 Кбит/сек
Каналы : 2 канала
Расположение каналов : Front: L R
Частота : 48,0 КГц
Частота кадров : 31,250 кадров/сек (1536 spf)
Битовая глубина : 16 бит
Метод сжатия : С потерями
Размер потока : 133 Мбайт (8%)
Заголовок : MVO [HDrezka Studio]
Язык : Russian
Default : Да
Forced : Нет
Аудио #2
Идентификатор : 3
Формат : AC-3
Формат/Информация : Audio Coding 3
Расширение режима : CM (complete main)
Параметр Endianness формата : Big
Идентификатор кодека : A_AC3
Продолжительность : 1 ч. 37 м.
Вид битрейта : Постоянный
Битрейт : 384 Кбит/сек
Каналы : 6 каналов
Расположение каналов : Front: L C R, Side: L R, LFE
Частота : 48,0 КГц
Частота кадров : 31,250 кадров/сек (1536 spf)
Битовая глубина : 16 бит
Метод сжатия : С потерями
Размер потока : 267 Мбайт (16%)
Заголовок : [Original]
Язык : English
Default : Нет
Forced : Нет
Текст #1
Идентификатор : 4
Формат : UTF-8
Идентификатор кодека : S_TEXT/UTF8
Идентификатор кодека/Информация : UTF-8 Plain Text
Продолжительность : 1 ч. 31 м.
Битрейт : 51 бит/сек
Count of elements : 1002
Размер потока : 34,1 Кбайт (0%)
Заголовок : Full
Язык : English
Default : Нет
Forced : Нет
Текст #2
Идентификатор : 5
Формат : UTF-8
Идентификатор кодека : S_TEXT/UTF8
Идентификатор кодека/Информация : UTF-8 Plain Text
Продолжительность : 1 ч. 32 м.
Битрейт : 54 бит/сек
Count of elements : 1118
Размер потока : 36,7 Кбайт (0%)
Заголовок : SDH
Язык : English
Default : Нет
Forced : Нет
Меню
00:00:00.000 : en:1
00:04:01.241 : en:2
00:12:11.773 : en:3
00:18:54.133 : en:4
00:26:30.756 : en:5
00:29:32.938 : en:6
00:36:11.294 : en:7
00:41:59.976 : en:8
00:48:26.278 : en:9
00:53:37.964 : en:10
01:01:42.948 : en:11
01:07:06.771 : en:12
01:11:59.563 : en:13
01:17:18.423 : en:14
01:24:25.933 : en:15
01:31:53.839 : en:16
[Profile] [PM]
Display posts:    
Reply to topic

Current time is: 22-Apr 18:19

All times are UTC + 3



You cannot post new topics in this forum
You cannot reply to topics in this forum
You cannot edit your posts in this forum
You cannot delete your posts in this forum
You cannot vote in polls in this forum
You cannot attach files in this forum
You cannot download files in this forum