Баллада Бастера Скраггса / The Ballad of Buster Scruggs (2018) WEB-DL 1080p

Reply to topic
 
Author Message

Monk ®

Gender: Male

Longevity: 9 months 11 days

Posts: 7980

Location: Казань

Post 29-Nov-2018 09:24

[Quote]

Баллада Бастера Скраггса / The Ballad of Buster Scruggs Год выпуска: 2018
Жанр: Мюзикл, драма, мелодрама, комедия, детектив, вестерн
Выпущено: США, Annapurna Pictures, Annapurna Television, Mike Zoss Productions
Режиссер: Итан Коэн, Джоэл Коэн
В ролях: Лиам Нисон, Джеймс Франко, Дэвид Крамхолц, Клэнси Браун, Зои Казан, Брендан Глисон, Гарри Меллинг, Стивен Рут, Том Уэйтс, Ралф Айнесон
О фильме: События разворачиваются на Диком Западе в маленьких захолустных городках среди бескрайних американских прерий и высокогорных равнин. В этом суровом мире, где каждый сам за себя, царит один закон: выживает сильнейший.

Качество: WEB-DL 1080p
Видео: MPEG-4 AVC, ~ 5800 Кбит/с, 1920x1080
Аудио: Русский, английский (AC3, 6 ch, 384 Кбит/с)
Продолжительность: 02:13:18
Перевод: Дублированный [АРК-ТВ Studio + VSI International]
Субтитры: Русские, английские, испанские, французские, немецкие, португальские

Скриншоты



MediaInfo

Полное имя : D:\The.Ballad.of.Buster.Scruggs.2018.1080p.WEB-DL.DUB.EniaHD.mkv
Формат : Matroska
Версия формата : Version 4
Размер файла : 5,98 Гбайт
Продолжительность : 2 ч. 13 м.
Режим общего битрейта : Переменный
Общий поток : 6421 Кбит/сек
Название фильма : Баллада Бастера Скраггса 2018
Дата кодирования : UTC 2018-11-16 15:14:36
Программа кодирования : mkvmerge v28.2.0 ('The Awakening') 32-bit
Библиотека кодирования : libebml v1.3.6 + libmatroska v1.4.9
Обложка : Yes
Attachments : cover.png
Видео
Идентификатор : 1
Формат : AVC
Формат/Информация : Advanced Video Codec
Профиль формата : Main@L4
Настройки формата : CABAC / 3 Ref Frames
Параметр CABAC формата : Да
Параметр RefFrames формата : 3 кадра
Идентификатор кодека : V_MPEG4/ISO/AVC
Продолжительность : 2 ч. 13 м.
Вид битрейта : Переменный
Битрейт : 5800 Кбит/сек
Максимальный битрейт : 8700 Кбит/сек
Ширина : 1920 пикселей
Высота : 1080 пикселей
Соотношение сторон : 16:9
Режим частоты кадров : Постоянный
Частота кадров : 23,976 (24000/1001) кадра/сек
Цветовое пространство : YUV
Субдискретизация насыщенности : 4:2:0
Битовая глубина : 8 бит
Тип развёртки : Прогрессивная
Бит/(Пиксели*Кадры) : 0.117
Размер потока : 5,26 Гбайт (88%)
Заголовок : The.Ballad.of.Buster.Scruggs.2018.1080p.WEB-DL.DUB.EniaHD
Библиотека кодирования : x264 core 148 r2715 7e75228
Настройки программы : cabac=1 / ref=3 / deblock=1:0:0 / analyse=0x1:0x111 / me=umh / subme=10 / psy=1 / psy_rd=1.00:0.00 / mixed_ref=1 / me_range=24 / chroma_me=1 / trellis=2 / 8x8dct=0 / cqm=0 / deadzone=21,11 / fast_pskip=1 / chroma_qp_offset=-2 / threads=8 / lookahead_threads=1 / sliced_threads=0 / nr=0 / decimate=1 / interlaced=0 / bluray_compat=0 / stitchable=1 / constrained_intra=0 / bframes=2 / b_pyramid=0 / b_adapt=2 / b_bias=0 / direct=3 / weightb=1 / open_gop=0 / weightp=2 / keyint=48 / keyint_min=25 / scenecut=0 / intra_refresh=0 / rc_lookahead=48 / rc=2pass / mbtree=1 / bitrate=5800 / ratetol=1.0 / qcomp=0.50 / qpmin=6 / qpmax=51 / qpstep=4 / cplxblur=20.0 / qblur=0.5 / vbv_maxrate=8700 / vbv_bufsize=11600 / nal_hrd=vbr / filler=0 / ip_ratio=1.40 / aq=1:1.00
Язык : English
Default : Да
Forced : Нет
Аудио #1
Идентификатор : 2
Формат : AC-3
Формат/Информация : Audio Coding 3
Коммерческое название : Dolby Digital
Идентификатор кодека : A_AC3
Продолжительность : 2 ч. 13 м.
Вид битрейта : Постоянный
Битрейт : 384 Кбит/сек
Каналы : 6 каналов
Channel layout : L R C LFE Ls Rs
Частота : 48,0 КГц
Частота кадров : 31,250 кадров/сек (1536 SPF)
Битовая глубина : 16 бит
Метод сжатия : С потерями
Размер потока : 366 Мбайт (6%)
Заголовок : AC3 5.1 @ 384 kbps - DUB, АРК-ТВ Studio + VSI International
Язык : Russian
ServiceKind/String : Complete Main
Default : Да
Forced : Нет
Аудио #2
Идентификатор : 3
Формат : AC-3
Формат/Информация : Audio Coding 3
Коммерческое название : Dolby Digital
Идентификатор кодека : A_AC3
Продолжительность : 2 ч. 13 м.
Вид битрейта : Постоянный
Битрейт : 384 Кбит/сек
Каналы : 6 каналов
Channel layout : L R C LFE Ls Rs
Частота : 48,0 КГц
Частота кадров : 31,250 кадров/сек (1536 SPF)
Битовая глубина : 16 бит
Метод сжатия : С потерями
Размер потока : 366 Мбайт (6%)
Заголовок : AC3 5.1 @ 384 kbps - Original
Язык : English
ServiceKind/String : Complete Main
Default : Нет
Forced : Нет
Текст #1
Идентификатор : 4
Формат : UTF-8
Идентификатор кодека : S_TEXT/UTF8
Идентификатор кодека/Информация : UTF-8 Plain Text
Продолжительность : 2 ч. 12 м.
Битрейт : 10 бит/сек
ElementCount : 195
Размер потока : 10,6 Кбайт (0%)
Заголовок : Forced
Язык : Russian
Default : Да
Forced : Да
Текст #2
Идентификатор : 5
Формат : UTF-8
Идентификатор кодека : S_TEXT/UTF8
Идентификатор кодека/Информация : UTF-8 Plain Text
Продолжительность : 2 ч. 12 м.
Битрейт : 73 бит/сек
ElementCount : 1373
Размер потока : 71,2 Кбайт (0%)
Заголовок : Full
Язык : Russian
Default : Нет
Forced : Нет
Текст #3
Идентификатор : 6
Формат : UTF-8
Идентификатор кодека : S_TEXT/UTF8
Идентификатор кодека/Информация : UTF-8 Plain Text
Продолжительность : 2 ч. 12 м.
Битрейт : 52 бит/сек
ElementCount : 1658
Размер потока : 51,3 Кбайт (0%)
Заголовок : Full
Язык : English
Default : Нет
Forced : Нет
Текст #4
Идентификатор : 7
Формат : UTF-8
Идентификатор кодека : S_TEXT/UTF8
Идентификатор кодека/Информация : UTF-8 Plain Text
Продолжительность : 2 ч. 12 м.
Битрейт : 41 бит/сек
ElementCount : 1082
Размер потока : 40,6 Кбайт (0%)
Заголовок : Dutch
Язык : Dutch
Default : Нет
Forced : Нет
Текст #5
Идентификатор : 8
Формат : UTF-8
Идентификатор кодека : S_TEXT/UTF8
Идентификатор кодека/Информация : UTF-8 Plain Text
Продолжительность : 2 ч. 12 м.
Битрейт : 46 бит/сек
ElementCount : 1347
Размер потока : 45,4 Кбайт (0%)
Заголовок : Italian
Язык : Italian
Default : Нет
Forced : Нет
Текст #6
Идентификатор : 9
Формат : UTF-8
Идентификатор кодека : S_TEXT/UTF8
Идентификатор кодека/Информация : UTF-8 Plain Text
Продолжительность : 2 ч. 12 м.
Битрейт : 48 бит/сек
ElementCount : 1374
Размер потока : 46,6 Кбайт (0%)
Заголовок : Portuguese
Язык : Portuguese
Default : Нет
Forced : Нет
Текст #7
Идентификатор : 10
Формат : UTF-8
Идентификатор кодека : S_TEXT/UTF8
Идентификатор кодека/Информация : UTF-8 Plain Text
Продолжительность : 2 ч. 12 м.
Битрейт : 44 бит/сек
ElementCount : 1353
Размер потока : 43,3 Кбайт (0%)
Заголовок : Brazilian Portuguese
Язык : Portuguese
Default : Нет
Forced : Нет
Текст #8
Идентификатор : 11
Формат : UTF-8
Идентификатор кодека : S_TEXT/UTF8
Идентификатор кодека/Информация : UTF-8 Plain Text
Продолжительность : 2 ч. 12 м.
Битрейт : 44 бит/сек
ElementCount : 1342
Размер потока : 42,7 Кбайт (0%)
Заголовок : Polish
Язык : Polish
Default : Нет
Forced : Нет
Текст #9
Идентификатор : 12
Формат : UTF-8
Идентификатор кодека : S_TEXT/UTF8
Идентификатор кодека/Информация : UTF-8 Plain Text
Продолжительность : 2 ч. 9 м.
Битрейт : 44 бит/сек
ElementCount : 1148
Размер потока : 42,1 Кбайт (0%)
Заголовок : Finnish
Язык : Finnish
Default : Нет
Forced : Нет
Текст #10
Идентификатор : 13
Формат : UTF-8
Идентификатор кодека : S_TEXT/UTF8
Идентификатор кодека/Информация : UTF-8 Plain Text
Продолжительность : 2 ч. 8 м.
Битрейт : 46 бит/сек
ElementCount : 1349
Размер потока : 43,9 Кбайт (0%)
Заголовок : Swedish
Язык : Swedish
Default : Нет
Forced : Нет
Текст #11
Идентификатор : 14
Формат : UTF-8
Идентификатор кодека : S_TEXT/UTF8
Идентификатор кодека/Информация : UTF-8 Plain Text
Продолжительность : 2 ч. 12 м.
Битрейт : 46 бит/сек
ElementCount : 1357
Размер потока : 44,8 Кбайт (0%)
Заголовок : French
Язык : French
Default : Нет
Forced : Нет
Текст #12
Идентификатор : 15
Формат : UTF-8
Идентификатор кодека : S_TEXT/UTF8
Идентификатор кодека/Информация : UTF-8 Plain Text
Продолжительность : 2 ч. 12 м.
Битрейт : 42 бит/сек
ElementCount : 1371
Размер потока : 41,6 Кбайт (0%)
Заголовок : Danish
Язык : Danish
Default : Нет
Forced : Нет
Текст #13
Идентификатор : 16
Формат : UTF-8
Идентификатор кодека : S_TEXT/UTF8
Идентификатор кодека/Информация : UTF-8 Plain Text
Продолжительность : 2 ч. 12 м.
Битрейт : 44 бит/сек
ElementCount : 1363
Размер потока : 43,2 Кбайт (0%)
Заголовок : Norwegian
Язык : Norwegian
Default : Нет
Forced : Нет
Текст #14
Идентификатор : 17
Формат : UTF-8
Идентификатор кодека : S_TEXT/UTF8
Идентификатор кодека/Информация : UTF-8 Plain Text
Продолжительность : 2 ч. 12 м.
Битрейт : 45 бит/сек
ElementCount : 1375
Размер потока : 44,2 Кбайт (0%)
Заголовок : European Spanish
Язык : Spanish
Default : Нет
Forced : Нет
Текст #15
Идентификатор : 18
Формат : UTF-8
Идентификатор кодека : S_TEXT/UTF8
Идентификатор кодека/Информация : UTF-8 Plain Text
Продолжительность : 2 ч. 11 м.
Битрейт : 75 бит/сек
ElementCount : 1372
Размер потока : 73,2 Кбайт (0%)
Заголовок : Greek
Язык : Russian
Default : Нет
Forced : Нет
Текст #16
Идентификатор : 19
Формат : UTF-8
Идентификатор кодека : S_TEXT/UTF8
Идентификатор кодека/Информация : UTF-8 Plain Text
Продолжительность : 2 ч. 8 м.
Битрейт : 47 бит/сек
ElementCount : 1330
Размер потока : 44,6 Кбайт (0%)
Заголовок : Spanish
Язык : Spanish
Default : Нет
Forced : Нет
Текст #17
Идентификатор : 20
Формат : UTF-8
Идентификатор кодека : S_TEXT/UTF8
Идентификатор кодека/Информация : UTF-8 Plain Text
Продолжительность : 2 ч. 12 м.
Битрейт : 47 бит/сек
ElementCount : 1341
Размер потока : 46,3 Кбайт (0%)
Заголовок : German
Язык : German
Default : Нет
Forced : Нет
Текст #18
Идентификатор : 21
Формат : UTF-8
Идентификатор кодека : S_TEXT/UTF8
Идентификатор кодека/Информация : UTF-8 Plain Text
Продолжительность : 2 ч. 12 м.
Битрейт : 43 бит/сек
ElementCount : 1364
Размер потока : 41,8 Кбайт (0%)
Заголовок : Indonesian
Язык : Russian
Default : Нет
Forced : Нет
Текст #19
Идентификатор : 22
Формат : UTF-8
Идентификатор кодека : S_TEXT/UTF8
Идентификатор кодека/Информация : UTF-8 Plain Text
Продолжительность : 2 ч. 12 м.
Битрейт : 45 бит/сек
ElementCount : 1212
Размер потока : 44,2 Кбайт (0%)
Заголовок : Turkish
Язык : Turkish
Default : Нет
Forced : Нет
[Profile] [PM]
Display posts:    
Reply to topic

Current time is: 25-Aug 15:23

All times are UTC + 3



You cannot post new topics in this forum
You cannot reply to topics in this forum
You cannot edit your posts in this forum
You cannot delete your posts in this forum
You cannot vote in polls in this forum
You cannot attach files in this forum
You cannot download files in this forum