Падмавати / Padmaavat (Padmavati) (2018) BDRip 1080p

Reply to topic
 
Author Message

Monk ®

Gender: Male

Longevity: 6 months 9 days

Posts: 6383

Location: Казань

Post 29-Nov-2018 10:03

[Quote]

Падмавати / Padmaavat (Padmavati) Год выпуска: 2018
Жанр: Исторический, драма, мелодрама
Выпущено: Индия, Bhansali Productions, Viacom18 Motion Pictures
Режиссер: Санджай Лила Бхансали
В ролях: Дипика Падукон, Ануприя Гоенка, Ранвир Сингх, Шахид Капур, Адити Рао Хидари, Джим Сарбх, Раза Мурад, Шархан Сингх, Манджит Сингх, Падмавати Рао
О фильме: 1303 год. Могущественный султан Алауддин Хилджи, завоевавший половину Индии, поддается сладким речам изгнанного из Читторгарха бывшего королевского религиозного наставника, что его могущество только будет расти, если рядом с ним будет красавица Падмавати, жена правителя Раваны Сингха. С этого момента султан становится одержим идеей захватить Падмавати. Он приводит свои войска к стенам крепости Читторгарх и обещает её правителю не разрушать город, если тот отдаст ему собственную жену.

Качество: BDRip 1080p
Видео: MPEG-4 AVC, 15.0 Мбит/с, 1920х804, 24 кадр/с
Аудио: Русский (АС3, 2 ch, 192 Кбит/с), (MP3, 2 ch, 320 Кбит/с), хинди (АС3, 6 ch, 640 Кбит/с)
Продолжительность: 02:42:54
Перевод: Профессиональный многоголосый [Honey&Haseena], любительский многоголосый [Selena / FanStudio]
Субтитры: Русские

Скриншоты



MediaInfo

Общее
Уникальный идентификатор : 172631201040474504341537771984741530866 (0x81DF8F585AD891A98B88927435E0FCF2)
Полное имя : C:\Users\Владимир\Downloads\PADMAAVAT 2018 BDRip 1080p x264 3Rus.mkv
Формат : Matroska
Версия формата : Version 2
Размер файла : 18,5 Гбайт
Продолжительность : 2 ч. 42 м.
Общий поток : 16,3 Мбит/сек
Название фильма : TorrentCounter.to - Download HD & BluRay Movies in Small Size
Дата кодирования : UTC 2018-11-27 15:36:38 / UTC 2018-11-25 17:05:37
Программа кодирования : mkvmerge v4.1.1 ('Bouncin' Back') сборка от Jul 3 2010 22:54:08
Библиотека кодирования : libebml v1.0.0 + libmatroska v1.0.0 / Lavf54.63.104
Видео
Идентификатор : 1
Формат : AVC
Формат/Информация : Advanced Video Codec
Профиль формата : Main@L4.1
Настройки формата : CABAC / 1 Ref Frames
Параметр CABAC формата : Да
Параметр RefFrames формата : 1 кадр
Идентификатор кодека : V_MPEG4/ISO/AVC
Продолжительность : 2 ч. 42 м.
Битрейт : 15,0 Мбит/сек
Ширина : 1920 пикселей
Высота : 804 пикселя
Соотношение сторон : 2,40:1
Режим частоты кадров : Постоянный
Частота кадров : 24,000 кадра/сек
Цветовое пространство : YUV
Субдискретизация насыщенности : 4:2:0
Битовая глубина : 8 бит
Тип развёртки : Прогрессивная
Бит/(Пиксели*Кадры) : 0.405
Размер потока : 16,6 Гбайт (90%)
Библиотека кодирования : x264 core 129
Настройки программы : cabac=1 / ref=1 / deblock=1:0:0 / analyse=0x1:0x131 / me=dia / subme=2 / psy=1 / psy_rd=1.00:0.00 / mixed_ref=0 / me_range=16 / chroma_me=1 / trellis=0 / 8x8dct=0 / cqm=0 / deadzone=21,11 / fast_pskip=1 / chroma_qp_offset=0 / threads=2 / lookahead_threads=1 / sliced_threads=0 / nr=0 / decimate=1 / interlaced=0 / bluray_compat=0 / constrained_intra=0 / bframes=0 / weightp=2 / keyint=250 / keyint_min=25 / scenecut=40 / intra_refresh=0 / rc_lookahead=40 / rc=abr / mbtree=1 / bitrate=15000 / ratetol=1.0 / qcomp=0.60 / qpmin=10 / qpmax=51 / qpstep=4 / ip_ratio=1.41 / aq=1:1.00
Default : Да
Forced : Нет
Аудио #1
Идентификатор : 2
Формат : AC-3
Формат/Информация : Audio Coding 3
Коммерческое название : Dolby Digital
Режим смешивания : Header stripping
Идентификатор кодека : A_AC3
Продолжительность : 2 ч. 42 м.
Вид битрейта : Постоянный
Битрейт : 192 Кбит/сек
Каналы : 2 канала
Channel layout : L R
Частота : 48,0 КГц
Частота кадров : 31,250 кадров/сек (1536 SPF)
Битовая глубина : 16 бит
Метод сжатия : С потерями
Размер потока : 224 Мбайт (1%)
Заголовок : Профессиональный многоголосый: Honey&Haseena
Язык : Russian
ServiceKind/String : Complete Main
Default : Нет
Forced : Нет
Аудио #2
Идентификатор : 3
Формат : AC-3
Формат/Информация : Audio Coding 3
Коммерческое название : Dolby Digital
Режим смешивания : Header stripping
Идентификатор кодека : A_AC3
Продолжительность : 2 ч. 42 м.
Вид битрейта : Постоянный
Битрейт : 192 Кбит/сек
Каналы : 2 канала
Channel layout : L R
Частота : 48,0 КГц
Частота кадров : 31,250 кадров/сек (1536 SPF)
Битовая глубина : 16 бит
Метод сжатия : С потерями
Размер потока : 224 Мбайт (1%)
Заголовок : Любительский многоголосый: Selena
Язык : Russian
ServiceKind/String : Complete Main
Default : Нет
Forced : Нет
Аудио #3
Идентификатор : 4
Формат : MPEG Audio
Версия формата : Version 1
Профиль формата : Layer 3
Настройки формата : Joint stereo / MS Stereo
Режим смешивания : Header stripping
Идентификатор кодека : A_MPEG/L3
Идентификатор кодека/Подсказка : MP3
Продолжительность : 2 ч. 42 м.
Вид битрейта : Постоянный
Битрейт : 320 Кбит/сек
Каналы : 2 канала
Частота : 48,0 КГц
Частота кадров : 41,667 кадра/сек (1152 SPF)
Метод сжатия : С потерями
Размер потока : 373 Мбайт (2%)
Заголовок : Любительский многоголосый: FanStudio
Библиотека кодирования : LAME3.99r
Настройки программы : -m j -V 4 -q 5 -lowpass 20.5
Язык : Russian
Default : Нет
Forced : Нет
Аудио #4
Идентификатор : 5
Формат : AC-3
Формат/Информация : Audio Coding 3
Коммерческое название : Dolby Digital
Режим смешивания : Header stripping
Идентификатор кодека : A_AC3
Продолжительность : 2 ч. 42 м.
Вид битрейта : Постоянный
Битрейт : 640 Кбит/сек
Каналы : 6 каналов
Channel layout : L R C LFE Ls Rs
Частота : 48,0 КГц
Частота кадров : 31,250 кадров/сек (1536 SPF)
Битовая глубина : 16 бит
Метод сжатия : С потерями
Размер потока : 746 Мбайт (4%)
Язык : Hindi
ServiceKind/String : Complete Main
Default : Да
Forced : Нет
Текст #1
Идентификатор : 6
Формат : UTF-8
Идентификатор кодека : S_TEXT/UTF8
Идентификатор кодека/Информация : UTF-8 Plain Text
Заголовок : Песни 1
Язык : Russian
Default : Да
Forced : Нет
Текст #2
Идентификатор : 7
Формат : UTF-8
Идентификатор кодека : S_TEXT/UTF8
Идентификатор кодека/Информация : UTF-8 Plain Text
Заголовок : Песни 2
Язык : Russian
Default : Нет
Forced : Нет
Текст #3
Идентификатор : 8
Формат : UTF-8
Идентификатор кодека : S_TEXT/UTF8
Идентификатор кодека/Информация : UTF-8 Plain Text
Заголовок : Полные 1
Язык : Russian
Default : Нет
Forced : Нет
Текст #4
Идентификатор : 9
Формат : UTF-8
Идентификатор кодека : S_TEXT/UTF8
Идентификатор кодека/Информация : UTF-8 Plain Text
Заголовок : Полные 2
Язык : Russian
Default : Нет
Forced : Нет
[Profile] [PM]
Display posts:    
Reply to topic

Current time is: 24-May 13:06

All times are UTC + 3



You cannot post new topics in this forum
You cannot reply to topics in this forum
You cannot edit your posts in this forum
You cannot delete your posts in this forum
You cannot vote in polls in this forum
You cannot attach files in this forum
You cannot download files in this forum