Прошлой зимой, прощание с тобой / Kyonen no fuyu, kimi to wakare (2018) BDRip 720p

Reply to topic
 
Author Message

Monk ®

Gender: Male

Longevity: 11 months 4 days

Posts: 9032

Location: Казань

Post 29-Nov-2018 10:58

[Quote]

Прошлой зимой, прощание с тобой / Kyonen no fuyu, kimi to wakare Год выпуска: 2018
Жанр: Драма, детектив, криминал
Выпущено: Япония, C&I Entertainment
Режиссер: Томоюки Такимото
В ролях: Таканори Ивата, Мидзуки Ямамото, Такуми Сайто, Реина Асами, Кадзуки Китамура, Кахо Цутимура
О фильме: Писатель Кёсукэ Якумото для своей следующей книги берётся за расследование дела об убийстве и поджоге, где главным подозреваемым является модный фотограф. Тот прославился серией снимков бабочек, но затем впал в творческий кризис и пытался сделать фотографии умирающей женщины, охваченной огнем.
Качество: BDRip 720p
Видео: MPEG-4 AVC, 5191 Кбит/с, 1280x536
Аудио: Русский (АС3, 2 ch, 192 Кбит/с), японский (DTS, 6 ch, 1536 Кбит/с)
Продолжительность: 01:58:41
Перевод: Любительский двухголосый [Karipso и Адриан]
Субтитры: Русские, английские, китайский

Скриншоты


MediaInfo

General
Unique ID : 199278182467399403295867405308723647262 (0x95EB94F697AD7557B006B85A57DED31E)
Complete name : Прошлой зимой, прощание с тобой.2018.DVO.720p.BluRay.x264-HDS.mkv
Format : Matroska
Format version : Version 4
File size : 5.83 GiB
Duration : 1 h 58 min
Overall bit rate : 7 032 kb/s
Movie name : Last Winter We Parted [2018] [720p] DVO, RUSSUB
Encoded date : UTC 2018-11-22 15:57:53
Writing application : mkvmerge v7.8.0 ('River Man') 32bit built on Mar 27 2015 16:18:02
Writing library : libebml v1.3.1 + libmatroska v1.4.2
Attachments : dearjoe.ttf / V_10_Cent_Comics.ttf / CAMBRIAZ.TTF / Bangkok Bold.ttf / Decor Initial.ttf / timesbi.ttf / arialbi.ttf / arialbd.ttf
Video
ID : 1
Format : AVC
Format/Info : Advanced Video Codec
Format profile : High@L4.1
Format settings : CABAC / 12 Ref Frames
Format settings, CABAC : Yes
Format settings, RefFrames : 12 frames
Codec ID : V_MPEG4/ISO/AVC
Duration : 1 h 58 min
Bit rate : 5 191 kb/s
Width : 1 280 pixels
Height : 536 pixels
Display aspect ratio : 2.40:1
Frame rate mode : Constant
Frame rate : 23.976 (24000/1001) FPS
Color space : YUV
Chroma subsampling : 4:2:0
Bit depth : 8 bits
Scan type : Progressive
Bits/(Pixel*Frame) : 0.316
Stream size : 4.30 GiB (74%)
Title : profile.php?mode=viewprofile&u=22488948 || RG Orient Extreme Films
Writing library : x264 core 148 r2705+45 bdacf7a 7mod [8-bit@all X86_64]
Encoding settings : cabac=1 / ref=12 / deblock=1:-3:-3 / analyse=0x3:0x113 / me=umh / subme=11 / psy=1 / fade_compensate=0.00 / psy_rd=1.00:0.05 / mixed_ref=1 / me_range=32 / chroma_me=1 / trellis=2 / 8x8dct=1 / cqm=0 / deadzone=21,11 / fast_pskip=0 / chroma_qp_offset=-2 / threads=16 / lookahead_threads=2 / sliced_threads=0 / nr=0 / decimate=1 / interlaced=0 / bluray_compat=0 / constrained_intra=0 / fgo=0 / bframes=8 / b_pyramid=2 / b_adapt=2 / b_bias=0 / direct=3 / weightb=1 / open_gop=0 / weightp=2 / keyint=250 / keyint_min=23 / scenecut=40 / intra_refresh=0 / rc=crf / mbtree=0 / crf=13.3000 / qcomp=0.60 / qpmin=0:0:0 / qpmax=69:69:69 / qpstep=4 / ip_ratio=1.40 / pb_ratio=1.30 / aq=4:0.90 / aq-sensitivity=10.00 / aq-factor=1.00:1.00:1.00 / aq2=0 / aq3=0
Language : Japanese
Default : Yes
Forced : No
Audio #1
ID : 2
Format : AC-3
Format/Info : Audio Coding 3
Commercial name : Dolby Digital
Codec ID : A_AC3
Duration : 1 h 58 min
Bit rate mode : Constant
Bit rate : 192 kb/s
Channel(s) : 2 channels
Channel layout : L R
Sampling rate : 48.0 kHz
Frame rate : 31.250 FPS (1536 SPF)
Bit depth : 16 bits
Compression mode : Lossy
Stream size : 163 MiB (3%)
Title : DVO [Karipso, Адриан]
Language : Russian
Service kind : Complete Main
Default : Yes
Forced : No
Audio #2
ID : 3
Format : DTS
Format/Info : Digital Theater Systems
Codec ID : A_DTS
Duration : 1 h 58 min
Bit rate mode : Constant
Bit rate : 1 509 kb/s
Channel(s) : 6 channels
Channel layout : C L R Ls Rs LFE
Sampling rate : 48.0 kHz
Frame rate : 93.750 FPS (512 SPF)
Bit depth : 24 bits
Compression mode : Lossy
Stream size : 1.25 GiB (21%)
Language : Japanese
Default : No
Forced : No
Text #1
ID : 4
Format : ASS
Codec ID : S_TEXT/ASS
Codec ID/Info : Advanced Sub Station Alpha
Compression mode : Lossless
Title : ФСГ 'Black Pearl'
Language : Russian
Default : No
Forced : No
Text #2
ID : 5
Format : ASS
Codec ID : S_TEXT/ASS
Codec ID/Info : Advanced Sub Station Alpha
Compression mode : Lossless
Title : fansub by dlueey@Lj
Language : English
Default : No
Forced : No
Text #3
ID : 6
Format : PGS
Muxing mode : zlib
Codec ID : S_HDMV/PGS
Codec ID/Info : Picture based subtitle format used on BDs/HD-DVDs
Title : CHS
Language : Chinese
Default : No
Forced : No
Text #4
ID : 7
Format : PGS
Muxing mode : zlib
Codec ID : S_HDMV/PGS
Codec ID/Info : Picture based subtitle format used on BDs/HD-DVDs
Title : CHT
Language : Chinese
Default : No
Forced : No
Menu
00:00:00.000 : en:00:00:00.000
00:03:42.264 : en:00:03:42.264
00:12:40.385 : en:00:12:40.385
00:19:43.891 : en:00:19:43.891
00:26:18.952 : en:00:26:18.952
00:36:07.457 : en:00:36:07.457
00:47:36.395 : en:00:47:36.395
00:52:57.591 : en:00:52:57.591
01:02:02.469 : en:01:02:02.469
01:11:58.898 : en:01:11:58.898
01:27:46.678 : en:01:27:46.678
01:40:15.134 : en:01:40:15.134
01:51:48.118 : en:01:51:48.118
01:54:32.490 : en:01:54:32.490
[Profile] [PM]
Display posts:    
Reply to topic

Current time is: 18-Oct 22:56

All times are UTC + 3



You cannot post new topics in this forum
You cannot reply to topics in this forum
You cannot edit your posts in this forum
You cannot delete your posts in this forum
You cannot vote in polls in this forum
You cannot attach files in this forum
You cannot download files in this forum