Контакт (1-12 серии из 12) (2018) DVB от R.G.Generalfilm

Reply to topic
 
Author Message

White Smoke ®

Gender: Male

Longevity: 9 months 11 days

Posts: 77

Post 13-Aug-2019 19:46

[Quote]

Контакт Год выпуска: 2019
Жанр: Детектив
Выпущено: Россия, Украина Film.UA Group, Intra Communications
Режиссер: Михаил Баркан
В ролях: Павел Баршак, Матвей Зубалевич, Екатерина Маликова, Сергей Колос, Александр Семчев, Анна Сагайдачная, Владимир Гладкий, Михаил Жонин, Константин Косинский, Ольга Вивчарюк, Неонила Белецкая, Виталий Салий, Андрей Смирнов, Николай Боклан, Виктор Сарайкин, Нина Антонова, Галина Корнеева, Сергей Деревянко, Алексей Череватенко, Дато Роинишвили
О фильме: Спецслужбы проводят взрывные работы на участке, где зафиксированы магнитные аномалии. Совершенно случайно в зоне взрыва оказываются три человека: преступник Владимир Голенко, фотохудожник Олег Малинин и неудачливый писатель Венедикт Тартаковский. В результате взрыва между этими людьми возникает странная связь – фотограф Малинин может читать мысли преступника Голенко, и даже видеть окружающий мир его глазами, а писатель Тартаковский может полностью управлять действиями Голенко и при этом общаться с Малининым на расстоянии. Тартаковский, получив в свое полное распоряжение преступника Голенко, решает его руками отомстить всем, кто мешал ему в жизни. Город захлестывает череда кровавых преступлений. Малинин, понимая, что его «видения» реальны, обращается в полицию, но там его сначала подозревают в соучастии в преступлениях, а потом отправляют в психиатрическую клинику. Чтобы остановить преступников Малинину приходится бежать из клиники, скрываться от полиции, пытаться вести самостоятельное расследование. Но чем ближе он подбирается к убийце, тем изощрённее становятся преступления, планируемые Тартаковским…
Качество: DVB
Видео: MPEG-4 AVC, 720x576@1047x576(16:9), 25.000 fps, 4 200 Kbps (0.405 bit/pixel)
Аудио: MP2, 48.0 KHz, 2 ch, 192 Kbps
Продолжительность: ~ 00:45:06
Перевод : Не требуется
Cубтитры: украинские

Скриншоты

MediaInfo

General
ID : 1 (0x1)
Complete name : E:\Запись с тв\Kontakt 2018 DVB R.G.Generalfilm\Kontakt.s01.e01.2018.DVB.by.White Smoke.R.G.Generalfilm.ts
Format : MPEG-TS
File size : 1.43 GiB
Duration : 45 min 5 s
Overall bit rate mode : Variable
Overall bit rate : 4 554 kb/s
Maximum Overall bit rate : 35.5 Mb/s
Video
ID : 4113 (0x1011)
Menu ID : 1 (0x1)
Format : AVC
Format/Info : Advanced Video Codec
Format profile : Main@L3
Format settings : CABAC / 3 Ref Frames
Format settings, CABAC : Yes
Format settings, ReFrames : 3 frames
Codec ID : 27
Duration : 45 min 5 s
Bit rate mode : Constant
Bit rate : 4 200 kb/s
Width : 720 pixels
Height : 576 pixels
Display aspect ratio : 16:9
Frame rate : 25.000 FPS
Standard : PAL
Color space : YUV
Chroma subsampling : 4:2:0
Bit depth : 8 bits
Scan type : Progressive
Bits/(Pixel*Frame) : 0.405
Stream size : 1.30 GiB (91%)
Color range : Limited
Audio
ID : 4352 (0x1100)
Menu ID : 1 (0x1)
Format : MPEG Audio
Format version : Version 1
Format profile : Layer 2
Codec ID : 4
Duration : 45 min 5 s
Bit rate mode : Constant
Bit rate : 192 kb/s
Channel(s) : 2 channels
Sampling rate : 48.0 kHz
Frame rate : 41.667 FPS (1152 SPF)
Compression mode : Lossy
Stream size : 61.9 MiB (4%)
Релиз от:
[Profile] [PM]
Display posts:    
Reply to topic

Current time is: 24-Aug 15:40

All times are UTC + 3



You cannot post new topics in this forum
You cannot reply to topics in this forum
You cannot edit your posts in this forum
You cannot delete your posts in this forum
You cannot vote in polls in this forum
You cannot attach files in this forum
You cannot download files in this forum