Discovery. Золотая лихорадка. Берингово море / Bering Sea Gold [7 сезон: 1-10 серии из 10] (2018) HDTVRip 720p от GeneralFilm

Reply to topic
 
Author Message

Starik60 ®

Gender: Male

Longevity: 1 year 1 month

Posts: 192

Location: Москва, Россия

Post 18-Nov-2018 16:41

[Quote]

Золотая лихорадка. Берингово море / Bering Sea Gold
Год выпуска: 2018
Жанр: Документальный, природа, география, путешествия, приключения, исследование
Выпущено: США, Discovery Channel
В ролях: Эмили Ридель, Шон Помренк, Стив Помренк
О фильме: Вот уже более ста лет побережье и прибрежные воды в окрестностях города Ном на Аляске привлекают тех, кто стремится разбогатеть и готов к любым трудностям ради исполнения этой мечты. Многие золотоискатели успели заработать и потерять целые состояния в поисках золота Берингова моря. В начале лета золотые запасы в районе Нома иссякают, заставляя отчаявшихся старателей осваивать новые и опасные территории. Зик отправляется к острову Следж, Шон надеется сколотить состояние на новом прииске, а пошатнувшаяся репутация семьи Келли, возможно, расстроит их планы еще до начала сезона. К тому же к нашим героям присоединяется еще один золотоискатель, который надеется найти золото на дне Берингова моря, но надолго ли хватит его энтузиазма?

Качество: HDTVRip 720p
Видео: MPEG-2 AVC, ~ 4000 Кбит/с, 1280x720
Аудио: MP2, 2 ch, 384 Кбит/с
Продолжительность: 10 х ~ 00:44:00
Перевод: Профессиональный (многоголосый, закадровый)

Скриншоты



MediaInfo

Unique ID : 303810515180955871290902891439287132665 (0xE48FC6E05749FDBD68DB7FD4821B61F9)
Complete name : H:\Раздачи 4\Золотая лихорадка Берингово море S07 720p GeneralFilm\01 Золотая лихорадка Берингово море GeneralFilm.mkv
Format : Matroska
Format version : Version 2
File size : 1.34 GiB
Duration : 43 min 34 s
Overall bit rate mode : Constant
Overall bit rate : 4 389 kb/s
Writing application : Lavf54.63.104
Writing library : Lavf54.63.104
Video
ID : 1
Format : AVC
Format/Info : Advanced Video Codec
Format profile : High@L4.1
Format settings : CABAC / 3 Ref Frames
Format settings, CABAC : Yes
Format settings, ReFrames : 3 frames
Codec ID : V_MPEG4/ISO/AVC
Duration : 43 min 34 s
Bit rate mode : Constant
Bit rate : 4 000 kb/s
Width : 1 280 pixels
Height : 720 pixels
Display aspect ratio : 16:9
Frame rate mode : Constant
Frame rate : 50.000 FPS
Standard : PAL
Color space : YUV
Chroma subsampling : 4:2:0
Bit depth : 8 bits
Scan type : Progressive
Bits/(Pixel*Frame) : 0.087
Stream size : 1.19 GiB (89%)
Default : No
Forced : No
Color range : Limited
Color primaries : BT.709
Transfer characteristics : BT.709
Matrix coefficients : BT.709
Audio
ID : 2
Format : MPEG Audio
Format version : Version 1
Format profile : Layer 2
Codec ID : A_MPEG/L2
Codec ID/Hint : MP2
Duration : 43 min 34 s
Bit rate mode : Constant
Bit rate : 384 kb/s
Channel(s) : 2 channels
Sampling rate : 48.0 kHz
Compression mode : Lossy
Delay relative to video : 20 ms
Stream size : 120 MiB (9%)
Language : English
Default : Yes
Forced : No
Релиз от:
[Profile] [PM]
Display posts:    
Reply to topic

Current time is: 14-Dec 06:52

All times are UTC + 3



You cannot post new topics in this forum
You cannot reply to topics in this forum
You cannot edit your posts in this forum
You cannot delete your posts in this forum
You cannot vote in polls in this forum
You cannot attach files in this forum
You cannot download files in this forum