Линия огня [1-8 серии из 8] (2017) HDTVRip от Files-x

Reply to topic
 
Author Message

bond74 ®

Gender: Male

Longevity: 9 months 9 days

Posts: 582

Post 29-Nov-2018 14:55

[Quote]

Линия огня Год выпуска: 2017
Жанр: Драма, криминал
Выпущено: Россия, Киностудия "КИТ", Team Films
Режиссер: Александр Калугин
В ролях: Алексей Барабаш, Ирина Вальц, Анастасия Матвеева, Сергей Цепов, Руслан Ягудин, Сергей Загребнев, Михаил Стенин, Александр Фисенко, Виктория Герасимова, Яна Крайнова, Игорь Лагутин, Илья Соколовский, Сергей Погосян, Виктория Богатырёва
О фильме: Бывший следователь Токарев служит начальником караула пожарной части, оставив полицейскую работу в прошлом. Его друг юности Колосов занимается фармацевтическим бизнесом и продает дорогое медицинское оборудование. Однажды один из коллег Токарева становится инвалидом из-за неработающего аппарата искусственного дыхания, который поставила в больницу компания его товарища. Стремясь разобраться в ситуации, бывший полицейский приезжает к другу и оказывается в самом центре криминальной драмы: Колосова убивают, а главной подозреваемой становится его супруга. Перед смертью бизнесмен пристраивает своего приемного сына Дениса на работу в пожарную часть. Теперь Токареву и Денису придется привыкать друг к другу и вместе заниматься не только тушением пожаров, но и расследованием убийства Колосова…
Качество: HDTVRip
Видео: XviD, ~ 1550 Кбит/с, 720x400, 25 кадр/с
Аудио: AC3, 2 ch, 192 Кбит/с
Продолжительность: 8 x ~ 00:45:00
Перевод: Не требуется
Субтитры: нет

Скриншоты

MediaInfo

General
Complete name : D:\Linija.ognia.2017.HDTVRip.Files-x\01.Linija.ognia.2017.HDTVRip.Files-x.avi
Format : AVI
Format/Info : Audio Video Interleave
File size : 600 MiB
Duration : 48mn 41s
Overall bit rate : 1 724 Kbps
Writing application : VirtualDubMod 1.5.10.3 | www.virtualdub-fr.org || (build 2550/release)
Writing library : VirtualDubMod build 2550/release
Video
ID : 0
Format : MPEG-4 Visual
Format profile : Advanced Simple@L5
Format settings, BVOP : 1
Format settings, QPel : No
Format settings, GMC : No warppoints
Format settings, Matrix : Custom
Codec ID : XVID
Codec ID/Hint : XviD
Duration : 48mn 41s
Bit rate : 1 522 Kbps
Width : 720 pixels
Height : 400 pixels
Display aspect ratio : 16:9
Frame rate : 25.000 fps
Color space : YUV
Chroma subsampling : 4:2:0
Bit depth : 8 bits
Scan type : Progressive
Compression mode : Lossy
Bits/(Pixel*Frame) : 0.211
Stream size : 530 MiB (88%)
Writing library : XviD 73
Audio
ID : 1
Format : AC-3
Format/Info : Audio Coding 3
Mode extension : CM (complete main)
Format settings, Endianness : Big
Codec ID : 2000
Duration : 48mn 41s
Bit rate mode : Constant
Bit rate : 192 Kbps
Channel count : 2 channels
Channel positions : Front: L R
Sampling rate : 48.0 KHz
Bit depth : 16 bits
Compression mode : Lossy
Stream size : 66.9 MiB (11%)
Alignment : Split accross interleaves
Interleave, duration : 40 ms (1.00 video frame)
Interleave, preload duration : 500 ms
Релиз от:
[Profile] [PM]
Display posts:    
Reply to topic

Current time is: 24-Aug 15:39

All times are UTC + 3



You cannot post new topics in this forum
You cannot reply to topics in this forum
You cannot edit your posts in this forum
You cannot delete your posts in this forum
You cannot vote in polls in this forum
You cannot attach files in this forum
You cannot download files in this forum