Аэропорт изнутри / Discovery. Airport from within [1-5 серии из 5] (2015) HDTV 1080i от GeneralFilm

Reply to topic
 
Author Message

Starik60 ®

Gender: Male

Longevity: 11 months 4 days

Posts: 171

Location: Москва, Россия

Post 29-Nov-2018 16:05

[Quote]

Аэропорт изнутри / Airport from within
Год выпуска: 2015
Жанр: Документальный, исследование, самолёты
Выпущено: США, Discovery Channel
О фильме: Новая программа Discovery Channel дает зрителям пропуск в святая святых современного аэропорта – в те места, где обычно висит табличка «только для персонала». На примере аэропорта Франкфурта вы увидите, как устроен современный авиаузел и что позволяет ему работать как часы, регулируя потоки миллионов пассажиров и тысяч самолетов.
Качество: HDTV 1080i
Видео: AVC, ~ 7000 Кбит/с, 1920x1080
Аудио: MP2, 2 ch, 224 Кбит/с
Продолжительность: 5 х ~ 00:44:00
Перевод: Профессиональный (одноголосый, закадровый)

Скриншоты



MediaInfo

General
ID : 1 (0x1)
Complete name : H:\Раздачи 3\Аэропорт изнутри 1080i GeneralFilm\01 Аэропорт изнутри 1080i GeneralFilm.ts
Format : MPEG-TS
File size : 2.29 GiB
Duration : 43 min 50 s
Overall bit rate mode : Variable
Overall bit rate : 7 468 kb/s
Video
ID : 224 (0xE0)
Menu ID : 1 (0x1)
Format : AVC
Format/Info : Advanced Video Codec
Format profile : High@L4.1
Format settings : CABAC / 3 Ref Frames
Format settings, CABAC : Yes
Format settings, ReFrames : 3 frames
Codec ID : 27
Duration : 43 min 50 s
Bit rate mode : Constant
Bit rate : 7 000 kb/s
Width : 1 920 pixels
Height : 1 080 pixels
Display aspect ratio : 16:9
Frame rate : 30.000 FPS
Standard : NTSC
Color space : YUV
Chroma subsampling : 4:2:0
Bit depth : 8 bits
Scan type : Progressive
Bits/(Pixel*Frame) : 0.113
Stream size : 2.10 GiB (92%)
Color range : Limited
Color primaries : BT.709
Transfer characteristics : BT.709
Matrix coefficients : BT.709
Audio
ID : 4097 (0x1001)
Menu ID : 1 (0x1)
Format : MPEG Audio
Format version : Version 1
Format profile : Layer 2
Codec ID : 3
Duration : 43 min 50 s
Bit rate mode : Constant
Bit rate : 224 kb/s
Channel(s) : 2 channels
Sampling rate : 48.0 kHz
Frame rate : 41.667 FPS (1152 SPF)
Compression mode : Lossy
Delay relative to video : 1 ms
Stream size : 70.3 MiB (3%)
Language : English

Название серий и содержание

Программа расскажет о том, как обеспечивается безопасность на всех этапах – от входа в здание до момента, когда самолет приземляется в пункте назначения. Кроме того, вы узнаете, как работает автоматическая система транспортировки багажа длиной 81 километр, и как выяснить, где находится любой из 140 000 чемоданов в конкретный момент. На компьютере будет смоделирован взлет самолета при встречном ветре, а также мягкая посадка 200-тонного лайнера. Помимо этого вы подниметесь на борт гигантского Airbus A380, простой которого обходится авиакомпаниям в миллион с лишним долларов в день. Откройте для себя огромный город, который живет по строжайшему распорядку, несмотря на царящий на первый взгляд хаос – совершите уникальное авиапутешествие вместе с программой «Аэропорт изнутри»!
01. Гонка со временем.
02. Полный контроль
03. Аэропорт не спит
04. Перекрёстки мира.
05. Без права на ошибку
Благодарю за отличный постер ValkiriaGF
Релиз от:
[Profile] [PM]
Display posts:    
Reply to topic

Current time is: 16-Oct 13:54

All times are UTC + 3



You cannot post new topics in this forum
You cannot reply to topics in this forum
You cannot edit your posts in this forum
You cannot delete your posts in this forum
You cannot vote in polls in this forum
You cannot attach files in this forum
You cannot download files in this forum