Discovery. Железная дорога Австралии/ Railroad Australia [2 сезон: 1-13 серии из 13] (2018) HDTVRip 720p от GeneralFilm

Reply to topic
 
Author Message

Abakan2000 ®

Gender: Male

Longevity: 9 months 9 days

Posts: 10

Post 18-Nov-2018 16:58

[Quote]

Железная дорога Австралии / Railroad Australia
Год выпуска: 2018
Жанр: Документальный, приключения, транспорт
Выпущено: Австралия, Discovery Channel
О фильме: Общая продолжительность железнодорожных путей Австралии составляет свыше 34 000 км. Каждый день перевозчики выполняют сложные и длительные путешествия, обеспечивая всю страну необходимыми товарами, а на огромных выжженных солнцем дорогах Австралии целые армии рабочих трудятся день и ночь, чтобы поддерживать бесперебойную доставку грузов и пассажиров.
Качество: HDTVRip (720p)
Видео: MPEG-4 AVC, ~ 4000 Кбит/с, 1280x720
Аудио: MP2, 2 ch, 192 Кбит/с
Продолжительность: 13 x ~ 00:44:00
Перевод: Профессиональный (двухголосый закадровый)

Скриншоты


MediaInfo

General
Unique ID : 91662016935185513002420036449940797345 (0x44F5765A7644BFC39CE337341DD7F7A1)
Complete name : D:\ВИДЕО\Документальные\Железная дорога Австралии. S02 720p RG GeneralFilm\01 Железная дорога Австралии .mkv
Format : Matroska
Format version : Version 2
File size : 1.29 GiB
Duration : 43 min 58 s
Overall bit rate mode : Constant
Overall bit rate : 4 198 kb/s
Writing application : Lavf54.63.104
Writing library : Lavf54.63.104
Video
ID : 1
Format : AVC
Format/Info : Advanced Video Codec
Format profile : High@L4.1
Format settings : CABAC / 3 Ref Frames
Format settings, CABAC : Yes
Format settings, ReFrames : 3 frames
Codec ID : V_MPEG4/ISO/AVC
Duration : 43 min 58 s
Bit rate mode : Constant
Bit rate : 4 000 kb/s
Width : 1 280 pixels
Height : 720 pixels
Display aspect ratio : 16:9
Frame rate mode : Constant
Frame rate : 50.000 FPS
Standard : PAL
Color space : YUV
Chroma subsampling : 4:2:0
Bit depth : 8 bits
Scan type : Progressive
Bits/(Pixel*Frame) : 0.087
Stream size : 1.20 GiB (93%)
Default : No
Forced : No
Color range : Limited
Color primaries : BT.709
Transfer characteristics : BT.709
Matrix coefficients : BT.709
Audio
ID : 2
Format : MPEG Audio
Format version : Version 1
Format profile : Layer 2
Codec ID : A_MPEG/L2
Codec ID/Hint : MP2
Duration : 43 min 58 s
Bit rate mode : Constant
Bit rate : 192 kb/s
Channel(s) : 2 channels
Sampling rate : 48.0 kHz
Compression mode : Lossy
Delay relative to video : 20 ms
Stream size : 60.4 MiB (5%)
Language : English
Default : Yes
Forced : No
Релиз от:
[Profile] [PM]
Display posts:    
Reply to topic

Current time is: 22-Aug 22:07

All times are UTC + 3



You cannot post new topics in this forum
You cannot reply to topics in this forum
You cannot edit your posts in this forum
You cannot delete your posts in this forum
You cannot vote in polls in this forum
You cannot attach files in this forum
You cannot download files in this forum