Ментовские войны. Харьков [2 сезон: 1-32 серии из 32] (2019) WEB-DLRip-AVC от Files-x

Reply to topic
 
Author Message

bond74 ®

Gender: Male

Longevity: 11 months

Posts: 680

Post 20-Aug-2019 01:48

[Quote]

Ментовские войны. Харьков Год выпуска: 2019
Жанр: Детектив, криминал, боевик
Выпущено:Украина, "1+1 Продакшн" по заказу телеканала 2+2
Режиссер: Валерий Рожко, Тарас Рыбальченко
В ролях: Артем Позняк, Богдан Юсипчук, Сергей Листунов, Танита Малкова (Татьяна Ожелевская), Анастасия Рула, Ирина Гулей
О фильме: Ментовские войны. Харьков-2 - это продолжение остросюжетного сериала про борьбу принципиальных оперативников против криминальной жизни родного города, в которой завязаны не только опытные преступники, но и «оборотни в погонах». Решительного и волевого руководителя уголовного розыска Андрея Гордиенко переводят в качестве обычного оперативника в районное отделение, где его встречают с неприязнью и недоверием. Но Гордиенко это не волнует, он берется за серию расследований и вместе с бывшими подчиненными, а сейчас настоящими друзьями, Богданом Харченко и Дмитрием Вороновым, пытается отомстить врагам, разоблачая преступность в рядах чиновников-коррупционеров.
Качество: WEB-DLRip
Видео: MPEG-4 AVC, ~ 1600 Кбит/с, 720x400, 25 кадр/с
Аудио: AC3, 2 ch, 192 Кбит/с
Продолжительность: 32 x ~ 00:48:00
Перевод: Не требуется
Субтитры: нет

Скриншоты

MediaInfo

General
Unique ID : 250842058374611549012477596240531030366 (0xBCB66C53CA5581B59A261CBB0FBA015E)
Complete name : H:\fiiles x\Ментовские войны. Харьков.s02.(2019).WEB-DLRip.Files-x\01. Ментовские войны Харьков.S02.2019.WEB-DLRip.Files-x.mkv
Format : Matroska
File size : 580 MiB
Duration : 45mn 12s
Overall bit rate : 1 793 Kbps
Encoded date : UTC 2019-08-19 22:17:31
Writing application : mkvmerge v7.8.0 ('River Man') 32bit built on Apr 3 2015 12:11:22
Writing library : libebml v1.3.1 + libmatroska v1.4.2
Video
ID : 1
Format : AVC
Format/Info : Advanced Video Codec
Format profile : High@L4.1
Format settings, CABAC : Yes
Format settings, ReFrames : 9 frames
Codec ID : V_MPEG4/ISO/AVC
Duration : 45mn 12s
Bit rate : 1 600 Kbps
Width : 720 pixels
Height : 400 pixels
Display aspect ratio : 16:9
Frame rate : 25.000 fps
Color space : YUV
Chroma subsampling : 4:2:0
Bit depth : 8 bits
Scan type : Progressive
Bits/(Pixel*Frame) : 0.222
Stream size : 506 MiB (87%)
Writing library : x264 core 146 r2538 121396c
Encoding settings : cabac=1 / ref=9 / deblock=1:-2:-1 / analyse=0x3:0x133 / me=umh / subme=9 / psy=1 / psy_rd=1.00:0.15 / mixed_ref=1 / me_range=32 / chroma_me=1 / trellis=2 / 8x8dct=1 / cqm=0 / deadzone=21,11 / fast_pskip=0 / chroma_qp_offset=-3 / threads=18 / lookahead_threads=3 / sliced_threads=0 / nr=0 / decimate=1 / interlaced=0 / bluray_compat=0 / constrained_intra=0 / bframes=9 / b_pyramid=2 / b_adapt=2 / b_bias=0 / direct=1 / weightb=1 / open_gop=0 / weightp=2 / keyint=250 / keyint_min=25 / scenecut=40 / intra_refresh=0 / rc=2pass / mbtree=0 / bitrate=1600 / ratetol=1.0 / qcomp=0.60 / qpmin=0 / qpmax=69 / qpstep=4 / cplxblur=20.0 / qblur=0.5 / ip_ratio=1.40 / pb_ratio=1.30 / aq=2:1.00
Color primaries : BT.709-5, BT.1361, IEC 61966-2-4, SMPTE RP177
Transfer characteristics : BT.709-5, BT.1361
Matrix coefficients : BT.709-5, BT.1361, IEC 61966-2-4 709, SMPTE RP177
Audio
ID : 2
Format : AC-3
Format/Info : Audio Coding 3
Mode extension : CM (complete main)
Codec ID : A_AC3
Duration : 45mn 12s
Bit rate mode : Constant
Bit rate : 192 Kbps
Channel(s) : 2 channels
Channel positions : Front: L R
Sampling rate : 48.0 KHz
Bit depth : 16 bits
Compression mode : Lossy
Stream size : 62.1 MiB (11%)
Релиз от:
[Profile] [PM]
Display posts:    
Reply to topic

Current time is: 13-Nov 03:49

All times are UTC + 3



You cannot post new topics in this forum
You cannot reply to topics in this forum
You cannot edit your posts in this forum
You cannot delete your posts in this forum
You cannot vote in polls in this forum
You cannot attach files in this forum
You cannot download files in this forum