Обман [1-12 серии из 12] (2018) WEB-DLRip от Files-x

Reply to topic
 
Author Message

bond74 ®

Gender: Male

Longevity: 6 months 9 days

Posts: 444

Post 29-Nov-2018 19:27

[Quote]

Обман Год выпуска: 2018
Жанр: Мелодрама
Выпущено: Украина, Film.uа и Pronto Film
Режиссер: Анна Гресь
В ролях: Панина, Дмитрий Белякин, Виктория Клинкова, Кирилл Жандаров, Артур Ваха, Алла Масленникова, Инна Мирошниченко, Даниил Мирешкин, Олег Москаленко, Виталий Салий
О фильме: Антон привык подчиняться родителям, но в какой-то момент понимает, что живёт по чужому сценарию, и все, что у него есть – это ненавистная работа и нелюбимая жена. Он решает круто изменить свою жизнь, звонит своей первой любви Ольге, живущей в маленьком городе, и признается в том, что чувства его не остыли. Ольга счастлива, ведь и для неё это шанс начать новую жизнь. Она полностью доверяется Антону, но все совсем непросто: у Антона много тайн и секретов, соперницей Ольги становится её родная сестра, и очень быстро жизнь главной героини рушится. В трудную минуту её поддерживает Максим, друг и партнёр Антона, который тяжело переживает гибель брата и одержим идеей найти виновницу его смерти. Кому можно доверять, а кто виновник всех бед, какая цена ошибки человека и всегда ли жизнь даёт шанс её исправить.

Качество: WEB-DLRip
Видео: XviD ~ 1626 Кбит/с, 720x400, 25 кадр/с
Аудио: AC3, 2 ch, 192 Кбит/с
Продолжительность: 12 x ~ 00:45:00
Перевод: Не требуется
Субтитры: нет

Скриншоты

MediaInfo

General
General
Complete name : Downloads\Обман.2018.WEB-DLRip.Files-x
Format : AVI
Format/Info : Audio Video Interleave
File size : 603 MiB
Duration : 46mn 6s
Overall bit rate : 1 828 Kbps
Writing application : VirtualDubMod 1.5.10.3 | www.virtualdub-fr.org || (build 2550/release)
Writing library : VirtualDubMod build 2550/release
Video #0
ID : 0
Format : MPEG-4 Visual
Format profile : Advanced Simple@L5
Format settings, BVOP : 1
Format settings, QPel : No
Format settings, GMC : No warppoints
Format settings, Matrix : Custom
Codec ID : XVID
Codec ID/Hint : XviD
Duration : 46mn 6s
Bit rate : 1 626 Kbps
Width : 720 pixels
Height : 400 pixels
Display aspect ratio : 16:9
Frame rate : 25.000 fps
Color space : YUV
Chroma subsampling : 4:2:0
Bit depth : 8 bits
Scan type : Progressive
Compression mode : Lossy
Bits/(Pixel*Frame) : 0.226
Stream size : 536 MiB (89%)
Writing library : XviD 73
Audio #1
ID : 1
Format : AC-3
Format/Info : Audio Coding 3
Mode extension : CM (complete main)
Format settings, Endianness : Big
Codec ID : 2000
Duration : 46mn 6s
Bit rate mode : Constant
Bit rate : 192 Kbps
Channel(s) : 2 channels
Channel positions : Front: L R
Sampling rate : 48.0 KHz
Bit depth : 16 bits
Compression mode : Lossy
Stream size : 63.3 MiB (11%)
Alignment : Split accross interleaves
Interleave, duration : 40 ms (1.00 video frame)
Interleave, preload duration : 500 ms
Релиз от:
[Profile] [PM]
Display posts:    
Reply to topic

Current time is: 24-May 13:05

All times are UTC + 3



You cannot post new topics in this forum
You cannot reply to topics in this forum
You cannot edit your posts in this forum
You cannot delete your posts in this forum
You cannot vote in polls in this forum
You cannot attach files in this forum
You cannot download files in this forum