Сиделка [1-16 серии из 16] (2018) WEB-DLRip от Files-x

Reply to topic
 
Author Message

bond74 ®

Gender: Male

Longevity: 1 year

Posts: 696

Post 29-Nov-2018 19:40

[Quote]

Сиделка Год выпуска: 2018
Жанр: Мелодрама, детектив
Выпущено: Россия, Украина, Кинокомпания "ЭЙБИСИ ФИЛЬМ"
Режиссер: Станислав Назиров
В ролях: Александра Власова, Максим Дрозд, Юрий Беляев, Сергей Жигунов, Илья Акинтьев, Александр Давыдов (V), Денис Нурулин, Наталия Балясова, Анна Шульгина, Любава Грешнова, Анна Попова, Артемий Падалка, Дарья Белоусова
О фильме: В одном большом доме живут несколько поколений одной семьи. Каждый из них готов на всё ради наживы. Глава семьи очень богат, но его здоровье оставляет желать лучшего. Никто из родственников не хочет помогать старику, в итоге все пришли к единому мнению - нанять для него сиделку. Девушка, которую наняли в качестве сиделки, быстро подружилась со стариком. Родственники продолжают делать вид, что беспокоятся за здоровье главы семейства. Его супруга давно изменяет ему с соседом. Детям наплевать на закон и порядок. Неожиданно старик преподносит всем сюрприз.
Качество: WEB-DLRip
Видео: XviD, ~ 1543 Кбит/с, 720x400, 25 кадр/с
Аудио: AC3, 2 ch, 192 Кбит/с
Продолжительность: 16 x ~ 00:45:00
Перевод: Не требуется
Субтитры: нет

Скриншоты

MediaInfo

General
Complete name : D:\Sidelka.2018.WEB-DLRip.Files-x\01.Sidelka.2018.WEB-DLRip.Files-x.avi
Format : AVI
Format/Info : Audio Video Interleave
File size : 652 MiB
Duration : 52mn 14s
Overall bit rate : 1 745 Kbps
Writing application : VirtualDubMod 1.5.10.3 | www.virtualdub-fr.org || (build 2550/release)
Writing library : VirtualDubMod build 2550/release
Video
ID : 0
Format : MPEG-4 Visual
Format profile : Advanced Simple@L5
Format settings, BVOP : 1
Format settings, QPel : No
Format settings, GMC : No warppoints
Format settings, Matrix : Custom
Codec ID : XVID
Codec ID/Hint : XviD
Duration : 52mn 14s
Bit rate : 1 543 Kbps
Width : 720 pixels
Height : 400 pixels
Display aspect ratio : 16:9
Frame rate : 25.000 fps
Color space : YUV
Chroma subsampling : 4:2:0
Bit depth : 8 bits
Scan type : Progressive
Compression mode : Lossy
Bits/(Pixel*Frame) : 0.214
Stream size : 577 MiB (88%)
Writing library : XviD 73
Audio
ID : 1
Format : AC-3
Format/Info : Audio Coding 3
Mode extension : CM (complete main)
Format settings, Endianness : Big
Codec ID : 2000
Duration : 52mn 14s
Bit rate mode : Constant
Bit rate : 192 Kbps
Channel count : 2 channels
Channel positions : Front: L R
Sampling rate : 48.0 KHz
Bit depth : 16 bits
Compression mode : Lossy
Stream size : 71.8 MiB (11%)
Alignment : Split accross interleaves
Interleave, duration : 40 ms (1.00 video frame)
Interleave, preload duration : 500 ms
Релиз от:
[Profile] [PM]
Display posts:    
Reply to topic

Current time is: 10-Dec 01:15

All times are UTC + 3



You cannot post new topics in this forum
You cannot reply to topics in this forum
You cannot edit your posts in this forum
You cannot delete your posts in this forum
You cannot vote in polls in this forum
You cannot attach files in this forum
You cannot download files in this forum