Фитнес [1-20 серии из 20] (2018) WEBRip от Generalfilm | КПК

Reply to topic
 
Author Message

Мухич ®

Gender: Male

Longevity: 10 months 29 days

Posts: 53

Post 29-Nov-2018 23:32

[Quote]

Фитнес
Год выпуска: 2018
Жанр: Комедия
Выпущено: Россия, Yellow, Black and White
Режиссер: Антон Маслов
В ролях: Софья Зайка, Михаил Трухин, Татьяна Храмова (II), Роман Курцын, Алексей Демидов, Борис Дергачев, Марианна Шульц, Ольга Баранова, Анна Лауренская, Татьяна Сомова, Мария Малиновская, Александр Семчев, Данила Якушев, Евгений Михеев, Дмитрий Чеботарёв, Елизавета Мартинес, Ирина Бякова, Андрей Пынзару
О фильме:«Быстрее, выше, сильнее»… В мире Аси такому девизу не место. Так же, как и комплексам из-за лишнего веса. Тем более, есть дела поважнее – подготовка к свадьбе в самом разгаре. Беспечный мир Аси рушится в одну секунду: девушка узнает, что любимого давно не устраивает ее фигура. А лучшие подруги не стесняются злословить о пышных формах за ее спиной. Восстанавливать веру в себя Ася отправляется в спортклуб. Вот только тренировки и программа по снижению веса оказываются не по карману начинающей спортсменке. Выход один – стать сотрудником фитнеса и заниматься бесплатно. Так у Аси появляется новая работа, знакомства и, главное, стимул доказать подругам, бывшему и всему миру, что «невозможное возможно».

Качество: WEBRip | КПК
Видео: Н.264, 640x360 (16:9), 23.976 fps, 400 Kbps
Аудио: AAC LC, 44.1 KHz, 2 ch, 128 Kbps
Продолжительность: 20 x ~00:25:00
Перевод: Не требуется
Cубтитры: нет

Скриншоты

MediaInfo

D:\ Fitnes.by.mjjhec\01. Fitnes..2018.WEB-DLRip.mp4
Format : MPEG-4
Format profile : Base Media
Codec ID : isom
File size : 102 MiB
Duration : 26mn 44s
Overall bit rate : 532 Kbps
Encoded date : UTC 2018-11-10 15:49:41
Tagged date : UTC 2018-11-10 15:49:41
Video
ID : 1
Format : AVC
Format/Info : Advanced Video Codec
Format profile : High@L4.1
Format settings, CABAC : Yes
Format settings, ReFrames : 10 frames
Format settings, GOP : M=2, N=16
Codec ID : avc1
Codec ID/Info : Advanced Video Coding
Duration : 26mn 44s
Bit rate mode : Variable
Bit rate : 400 Kbps
Maximum bit rate : 977 Kbps
Width : 640 pixels
Height : 360 pixels
Display aspect ratio : 16:9
Frame rate mode : Constant
Frame rate : 23.976 fps
Color space : YUV
Chroma subsampling : 4:2:0
Bit depth : 8 bits
Scan type : Progressive
Bits/(Pixel*Frame) : 0.072
Stream size : 76.5 MiB (75%)
Title : 264@GPAC0.5.2-DEV-rev248-g39d5978-master
Writing library : x264 core 146 r2538 121396c
Encoding settings : cabac=1 / ref=10 / deblock=1:-3:-3 / analyse=0x3:0x133 / me=umh / subme=11 / psy=1 / psy_rd=1.00:1.00 / mixed_ref=1 / me_range=48 / chroma_me=1 / trellis=2 / 8x8dct=1 / cqm=0 / deadzone=21,11 / fast_pskip=1 / chroma_qp_offset=-4 / threads=6 / lookahead_threads=1 / sliced_threads=0 / nr=0 / decimate=0 / interlaced=0 / bluray_compat=0 / constrained_intra=0 / bframes=10 / b_pyramid=2 / b_adapt=2 / b_bias=0 / direct=3 / weightb=1 / open_gop=0 / weightp=2 / keyint=240 / keyint_min=23 / scenecut=40 / intra_refresh=0 / rc_lookahead=60 / rc=2pass / mbtree=0 / bitrate=400 / ratetol=1.0 / qcomp=0.60 / qpmin=0 / qpmax=69 / qpstep=4 / cplxblur=20.0 / qblur=0.5 / vbv_maxrate=14000 / vbv_bufsize=14000 / nal_hrd=none / filler=0 / ip_ratio=1.40 / pb_ratio=1.30 / aq=1:1.00
Encoded date : UTC 2018-11-10 15:49:41
Tagged date : UTC 2018-11-10 15:49:43
Audio
ID : 2
Format : AAC
Format/Info : Advanced Audio Codec
Format version : Version 4
Format profile : LC
Format settings, SBR : No
Codec ID : 40
Duration : 26mn 44s
Bit rate mode : Variable
Bit rate : 128 Kbps
Maximum bit rate : 132 Kbps
Channel(s) : 2 channels
Channel positions : Front: L R
Sampling rate : 48.0 KHz
Stream size : 24.5 MiB (24%)
Encoded date : UTC 2018-11-10 15:18:41
Tagged date : UTC 2018-11-10 15:49:43
Релиз от:
[Profile] [PM]
Display posts:    
Reply to topic

Current time is: 19-Oct 21:33

All times are UTC + 3



You cannot post new topics in this forum
You cannot reply to topics in this forum
You cannot edit your posts in this forum
You cannot delete your posts in this forum
You cannot vote in polls in this forum
You cannot attach files in this forum
You cannot download files in this forum