Следствие вели... с Леонидом Каневским. Пленники [18.11] (2018) WEBRip от GeneralFilm

Reply to topic
 
Author Message

olegka7373 ®

Gender: Male

Longevity: 9 months 7 days

Posts: 178

Location: Россия, Новокузнецк

Post 18-Nov-2018 18:01

[Quote]

Следствие вели... с Леонидом Каневским
Год выпуска: 2018
Жанр: Документальный, детектив, криминал, расследование, история
Выпущено: Россия, НТВ
Режиссер: Игорь Ромащенко, Борис Фёдоров
Ведущий: Леонид Каневский
О фильме: В квартиру ворвались преступники, которые стали требовать денег. На следующий день на месте трагедии были обнаружены три мертвые женщины. Что же произошло? Сыщики не догадывались, что в момент убийства в квартире находились две девочки, которым главарь бандитов приказал задушить собственную мать…
Качество: WEBRip
Видео: XviD, 1787 Кбит/с, 720x400
Аудио: Русский (AC3, 2 ch, 192 Кбит/с)
Продолжительность: 00:41:05
Перевод: Не требуется
Субтитры: нет

Скриншоты


MediaInfo

Общее
Полное имя : D:\Sledstvie.veli.(2018.11.18).WEBRip.GeneralFilm.avi
Формат : AVI
Формат/Информация : Audio Video Interleave
Размер файла : 584 Мбайт
Продолжительность : 41 м. 5 с.
Общий поток : 1989 Кбит/сек
Программа кодирования : VirtualDubMod 1.5.10.3 | www.virtualdub-fr.org || (build 2550/release)
Библиотека кодирования : VirtualDubMod build 2550/release
Видео
Идентификатор : 0
Формат : MPEG-4 Visual
Профиль формата : Advanced Simple@L5
Параметр BVOP формата : 1
Параметр QPel формата : Нет
Параметр GMC формата : Без точки перехода
Параметр матрицы формата : Выборочная
Идентификатор кодека : XVID
Идентификатор кодека/Подсказка : XviD
Продолжительность : 41 м. 5 с.
Битрейт : 1787 Кбит/сек
Ширина : 720 пикселей
Высота : 400 пикселей
Соотношение сторон : 16:9
Частота кадров : 25,000 кадров/сек
Цветовое пространство : YUV
Субдискретизация насыщенности : 4:2:0
Битовая глубина : 8 бит
Тип развёртки : Прогрессивная
Метод сжатия : С потерями
Бит/(Пиксели*Кадры) : 0.248
Размер потока : 525 Мбайт (90%)
Библиотека кодирования : XviD 1.2.1 (UTC 2008-12-04)
Аудио
Идентификатор : 1
Формат : AC-3
Формат/Информация : Audio Coding 3
Расширение режима : CM (complete main)
Параметр Endianness формата : Big
Идентификатор кодека : 2000
Продолжительность : 41 м. 5 с.
Вид битрейта : Постоянный
Битрейт : 192 Кбит/сек
Каналы : 2 канала
Расположение каналов : Front: L R
Частота : 48,0 КГц
Частота кадров : 31,250 кадров/сек (1536 spf)
Битовая глубина : 16 бит
Метод сжатия : С потерями
Размер потока : 56,4 Мбайт (10%)
Выравнивание : Разделение по промежуткам
Продолжительность промежутка : 40 мс. (1,00 видеокадр)
Время предзагрузки промежутка : 500 мс.
Релиз:
[Profile] [PM]
Display posts:    
Reply to topic

Current time is: 20-Aug 20:22

All times are UTC + 3



You cannot post new topics in this forum
You cannot reply to topics in this forum
You cannot edit your posts in this forum
You cannot delete your posts in this forum
You cannot vote in polls in this forum
You cannot attach files in this forum
You cannot download files in this forum