Лассо / Lasso (2018) WEB-DLRip-AVC

Reply to topic
 
Author Message

sergey82 ®

Gender: Male

Longevity: 1 year

Posts: 160

Location: Украина

Post 18-Nov-2018 18:10

[Quote]

Лассо / Lasso
Год выпуска: 2018
Жанр: Ужасы, триллер
Страна: США
Режиссер: Ивэн Сесил
В ролях: Шон Патрик Флэнери, Линдси Морган, Эндрю Джейкобс, Карен Грассл, Томас Кокениас, Бенедита Перейра, Трэвис Росс, Морган Бенуа, Тим Лайчик, Моника Брикка, Джуди Серда
О фильме: Туристическая группа пожилых людей приезжает на родео в американскую глубинку и подвергается нападению местных ковбоев, ополоумевших от употребления ветеринарных стероидов.
Качество: WEB-DLRip-AVC
Видео: MPEG-4 AVC, 1450 Кбит/с, 1060x440
Аудио: Русский, английский (AC3, 2 ch, 384 Кбит/с)
Продолжительность: 01:37:04
Перевод: Любительский двухголосый
Субтитры: нет

Скриншоты

MediaInfo

Общее
Уникальный идентификатор : 184633554361870227239797063966332376176 (0x8AE7210D3FCE8C9F3CFFF73ECCBD5470)
Полное имя : D:\Lasso.2018.WEB-DLRip.x264.Rus.Eng.stalkerok.New-Team.mkv
Формат : Matroska
Версия формата : Version 4 / Version 2
Размер файла : 1,51 Гбайт
Продолжительность : 1 ч. 37 м.
Общий поток : 2220 Кбит/сек
Название фильма : Lasso (2018) | Rip by stalkerok
Дата кодирования : UTC 2018-11-18 13:37:41
Программа кодирования : mkvmerge v28.2.0 ('The Awakening') 64-bit
Библиотека кодирования : libebml v1.3.6 + libmatroska v1.4.9
Видео
Идентификатор : 1
Формат : AVC
Формат/Информация : Advanced Video Codec
Профиль формата : High@L4.1
Настройки формата : CABAC / 12 Ref Frames
Параметр CABAC формата : Да
Параметр RefFrames формата : 12 кадров
Идентификатор кодека : V_MPEG4/ISO/AVC
Продолжительность : 1 ч. 37 м.
Битрейт : 1408 Кбит/сек
Ширина : 1060 пикселей
Высота : 440 пикселей
Соотношение сторон : 2,40:1
Режим частоты кадров : Постоянный
Частота кадров : 23,976 кадра/сек
Цветовое пространство : YUV
Субдискретизация насыщенности : 4:2:0
Битовая глубина : 8 бит
Тип развёртки : Прогрессивная
Бит/(Пиксели*Кадры) : 0.126
Размер потока : 978 Мбайт (63%)
Заголовок : Lasso (2018) | Rip by stalkerok
Библиотека кодирования : x264 core 157 r2932 303c484
Настройки программы : cabac=1 / ref=12 / deblock=1:-3:-2 / analyse=0x3:0x133 / me=umh / subme=10 / psy=1 / psy_rd=1.00:0.00 / mixed_ref=1 / me_range=32 / chroma_me=1 / trellis=2 / 8x8dct=1 / cqm=0 / deadzone=21,11 / fast_pskip=0 / chroma_qp_offset=-2 / threads=12 / lookahead_threads=3 / sliced_threads=0 / nr=0 / decimate=1 / interlaced=0 / bluray_compat=0 / constrained_intra=0 / bframes=14 / b_pyramid=2 / b_adapt=2 / b_bias=0 / direct=3 / weightb=1 / open_gop=0 / weightp=2 / keyint=240 / keyint_min=23 / scenecut=40 / intra_refresh=0 / rc_lookahead=60 / rc=crf / mbtree=0 / crf=19.6 / qcomp=0.65 / qpmin=0 / qpmax=69 / qpstep=4 / vbv_maxrate=50000 / vbv_bufsize=62500 / crf_max=0.0 / nal_hrd=none / filler=0 / ip_ratio=1.40 / pb_ratio=1.30 / aq=3:0.80
Default : Да
Forced : Нет
Аудио #1
Идентификатор : 2
Формат : AC-3
Формат/Информация : Audio Coding 3
Идентификатор кодека : A_AC3
Продолжительность : 1 ч. 37 м.
Вид битрейта : Постоянный
Битрейт : 384 Кбит/сек
Каналы : 6 каналов
Расположение каналов : Front: L C R, Side: L R, LFE
Частота : 48,0 КГц
Частота кадров : 31,250 кадров/сек (1536 SPF)
Битовая глубина : 16 бит
Метод сжатия : С потерями
Размер потока : 267 Мбайт (17%)
Заголовок : HiWayGrope
Язык : Russian
ServiceKind/String : Complete Main
Default : Да
Forced : Нет
Аудио #2
Идентификатор : 3
Формат : AC-3
Формат/Информация : Audio Coding 3
Идентификатор кодека : A_AC3
Продолжительность : 1 ч. 37 м.
Вид битрейта : Постоянный
Битрейт : 384 Кбит/сек
Каналы : 6 каналов
Расположение каналов : Front: L C R, Side: L R, LFE
Частота : 48,0 КГц
Частота кадров : 31,250 кадров/сек (1536 SPF)
Битовая глубина : 16 бит
Метод сжатия : С потерями
Размер потока : 267 Мбайт (17%)
Язык : English
ServiceKind/String : Complete Main
Default : Нет
Forced : Нет
Меню
00:00:00.000 : en:1
00:02:05.000 : en:2
00:13:56.000 : en:3
00:22:35.000 : en:4
00:33:53.000 : en:5
00:42:25.000 : en:6
00:53:20.000 : en:7
01:04:12.000 : en:8
01:14:27.000 : en:9
01:23:50.000 : en:10
01:32:36.000 : en:11
[Profile] [PM]
Display posts:    
Reply to topic

Current time is: 22-Nov 09:05

All times are UTC + 3



You cannot post new topics in this forum
You cannot reply to topics in this forum
You cannot edit your posts in this forum
You cannot delete your posts in this forum
You cannot vote in polls in this forum
You cannot attach files in this forum
You cannot download files in this forum