Discovery. Дикие эксперименты Адама Сэвиджа / Savage Builds [1-4 серии из 8] (2019) HDTVRip 720р от Starik60

Reply to topic
 
Author Message

Starik60 ®

Gender: Male

Longevity: 10 months 6 days

Posts: 161

Location: Москва, Россия

Post 28-Aug-2019 10:19

[Quote]

Дикие эксперименты Адама Сэвиджа / Savage Builds
Год выпуска: 2019
Жанр: Документальный, реалити-шоу, эксперименты
Выпущено: США, Discovery
Режиссер: Ивет Солис
В ролях: Адам Сэвэдж, Джон Маркус, Маркос Рамирес, Джен Шехтер, Сальваторе Белечи, Крейг Брайс, Питер Джексон, Кристи Джилли-Рехак, Лаура Кампф, Гэри Олдман
О фильме: Легендарный изобретатель, конструктор и мастер на все руки Адам Сэвидж решил исполнить свои самые смелые мечты, а точнее, задуманные им невероятные проекты. При этом Адам обращается за помощью и вдохновением к своим героям — изобретателям и нестандартно мыслящим новаторам науки и техники, с которыми он очень хотел поработать. Вместе они создают инновационные предметы из мира поп-культуры, вселенной супергероев, городских легенд и мифов. Обладая даром заряжать окружающих своей бешеной энергетикой, Адам гарантирует, что увлечет своими инженерными проектами всех зрителей без исключения.

Качество: HDTVRip 720p
Видео: MPEG-4 AVC, ~ 4000 Кбит/с, 1280x720
Аудио: MP2, 2 ch, 384 Кбит/с
Продолжительность: 4 x ~ 00:44:00
Перевод: Профессиональный (двухголосый, закадровый)

Скриншоты



MediaInfo

General
Unique ID : 216989360467561247401112184816839531209 (0xA33EA17525F70A4EBCE5E93725ED9AC9)
Complete name : G:\Раздачи 2\Savage Builds HDTVRip 720p Starik60\01 Дикие эксперименты Адама Сэвиджа by Starik60.mkv
Format : Matroska
Format version : Version 4 / Version 2
File size : 1.35 GiB
Duration : 44 min 0 s
Overall bit rate mode : Constant
Overall bit rate : 4 385 kb/s
Encoded date : UTC 2019-08-27 21:33:48
Writing application : mkvmerge v7.8.0 ('River Man') 64bit built on Mar 27 2015 16:31:37
Writing library : libebml v1.3.1 + libmatroska v1.4.2 / Lavf54.63.104
Cover : Yes
Attachments : cover.jpg
Video
ID : 1
Format : AVC
Format/Info : Advanced Video Codec
Format profile : High@L4.1
Format settings : CABAC / 3 Ref Frames
Format settings, CABAC : Yes
Format settings, ReFrames : 3 frames
Codec ID : V_MPEG4/ISO/AVC
Duration : 44 min 0 s
Bit rate mode : Constant
Bit rate : 4 000 kb/s
Width : 1 280 pixels
Height : 720 pixels
Display aspect ratio : 16:9
Frame rate mode : Constant
Frame rate : 50.000 FPS
Standard : PAL
Color space : YUV
Chroma subsampling : 4:2:0
Bit depth : 8 bits
Scan type : Progressive
Bits/(Pixel*Frame) : 0.087
Stream size : 1.23 GiB (91%)
Default : No
Forced : No
Color range : Limited
Color primaries : BT.709
Transfer characteristics : BT.709
Matrix coefficients : BT.709
Audio
ID : 2
Format : MPEG Audio
Format version : Version 1
Format profile : Layer 2
Codec ID : A_MPEG/L2
Codec ID/Hint : MP2
Duration : 44 min 0 s
Bit rate mode : Constant
Bit rate : 384 kb/s
Channel(s) : 2 channels
Sampling rate : 48.0 kHz
Frame rate : 41.667 FPS (1152 SPF)
Compression mode : Lossy
Delay relative to video : 12 ms
Stream size : 121 MiB (9%)
Language : English
Default : Yes
Forced : No

Название серий

01. Железный человек.
02. Колесо смерти.
03. Безумный Макс.
04. Экскалибур.
Благодарю за отличный постер ValkiriaGF
Релиз от:
[Profile] [PM]
Display posts:    
Reply to topic

Current time is: 19-Sep 06:05

All times are UTC + 3



You cannot post new topics in this forum
You cannot reply to topics in this forum
You cannot edit your posts in this forum
You cannot delete your posts in this forum
You cannot vote in polls in this forum
You cannot attach files in this forum
You cannot download files in this forum